Ростов / Rostov (Сезон 1 , Серия 1-16 из 16) ( Павел Дроздов) [2019, Детектив, история , WEB-DLRip - HEVC - 1080p]

Ответить на тему
 
Автор Сообщение

Nikolai.Baranov ®

Пол:

Стаж: 3 года 4 месяца

Сообщений: 203

Откуда: Красногорск

Пост Пост: #1 от 19-Авг-2020 14:46

[Цитировать]

---- Ростов / Rostov - (Сезон 1 , Серия 1-16 из 16) - Полный Комплект -- --Год выпуска: 2019
Выпущено: Россия , , «Киностудия КИТ», «Кинокомпания Телеостров» по заказу телеканала НТВ
Жанр: Детектив, история
Продолжительность: 00:50:00
Сезон:1
Серия:1-16
Количество серий в сезоне:16--Озвучка #1: Русский -- Релиз Без Рекламы -- --Режиссеры:
Павел Дроздов--В ролях: Алексей Барабаш, Артур Смольянинов, Александр Головин, Иван Охлобыстин, Софья Ардова, Константин Адаев, Юрий Круглов, Феликс Кроль, Юрий Ваксман, Никита Тарасов, Янина Мелехова, Андрей Иванов (IV), Александра Богданова (I), Дмитрий Лавров (III), Кристина Борейко-- Действие разворачивается в двадцатых годах прошлого столетия. Иван Козырев, или «Козырь», в прошлом – вор-рецидивист, промышлявший в Ростове. Но времена изменились – теперь Козырь принял новую власть и вернулся в город, чтобы «навести порядок». Его назначают начальником вновь сформированного отдела уголовного розыска. Руководство считает, что только Козырев может искоренить преступность в городе, ведь он изнутри знает воровской мир.-- --Качество : -WEB-DLRip - HEVC - 1080p.
Формат: MKV
Видео кодек: H265
Видео: 3157 Кбит/сек,1920х816(2.35.1),в 25.000 кадр/сек, HEVC (Main@L4@Main)--Аудио Кодек: AC3
Аудио #1: @DD5.1 AC3 , 384 Kbps, 48.0 KHz, 6 ch -Русский--

Доп. информация:

Звуковая дорожка сделана путем наложения чистого голоса озвучивателей на центральный канал оригинальной дорожки. Качество идентично звуковой дорожке.
--

MediaInfo

Общее
Уникальный идентификатор : 333048520025053072317829565915981714115 (0xFA8ECFCFD4EAB44FB3CD82920CB092C3)
Полное имя : F:\Nikolai.Baranov & PIRATIYA\РОСТО В - ROSTOV\Rostov_2019_S01_HEVC_Н265_DD5.1_N.B_HD_1080_Rus\Rostov_2019_S01E01-E02_HEVC_DD5.1_N.B_HD_1080_Rus.mkv
Формат : Matroska
Версия формата : Version 4
Размер файла : 2,47 Гбайт
Продолжительность : 1 ч. 39 м.
Общий поток : 3 543 Кбит/сек
Название фильма : Rostov 2019 S01E01-E02 @ Nikolai.Baranov & PIRATIYA
Дата кодирования : UTC 2020-08-18 13:38:21
Программа кодирования : mkvmerge v49.0.0 ('Sick Of Losing Soulmates') 64-bit
Библиотека кодирования : libebml v1.4.0 + libmatroska v1.6.1
Видео
Идентификатор : 1
Формат : HEVC
Формат/Информация : High Efficiency Video Coding
Профиль формата : Main@L4@Main
Идентификатор кодека : V_MPEGH/ISO/HEVC
Продолжительность : 1 ч. 39 м.
Битрейт : 3 157 Кбит/сек
Ширина : 1 920 пикселей
Высота : 816 пикселей
Соотношение сторон : 2,35:1
Режим частоты кадров : Постоянный
Частота кадров : 25,000 кадров/сек
Цветовое пространство : YUV
Субдискретизация насыщенности : 4:2:0
Битовая глубина : 8 бит
Бит/(Пиксели*Кадры) : 0.081
Размер потока : 2,20 Гбайт (89%)
Заголовок : Rostov_2019_S01E01-E02_HEVC_DD5.1_N.B_HD_1080_Rus
Язык : Russian
Default : Да
Forced : Нет
Цветовой диапазон : Full
Основные цвета : BT.709
Характеристики трансфера : BT.709
Коэффициенты матрицы : BT.709
Аудио
Идентификатор : 2
Формат : AC-3
Формат/Информация : Audio Coding 3
Коммерческое название : Dolby Digital
Идентификатор кодека : A_AC3
Продолжительность : 1 ч. 39 м.
Вид битрейта : Постоянный
Битрейт : 384 Кбит/сек
Каналы : 6 каналов
Channel layout : L R C LFE Ls Rs
Частота : 48,0 КГц
Частота кадров : 31,250 кадров/сек (1536 SPF)
Метод сжатия : С потерями
Размер потока : 274 Мбайт (11%)
Заголовок : Russian @DD5.1 AC3, 384 Kbps, 48.0 KHz, 6 ch
Язык : Russian
Service kind : Complete Main
Default : Да
Forced : Нет
Меню
00:00:00.000 : ru:Глава 01 / ru:Глава 01
--

Скриншоты

-- --

Как закачать отдельный файл

1. Открыть торрент
2. Снять галки с тех файлов торрента, которые мы не хотим закачивать. Оставляем только на нужных нам файлах (файле).
3. Нажать О.К.
В клиенте utorrent
Инструкция
1) Открыть торрент

2) Снять галки с тех файлов торрента, которые мы не хотим закачивать:
* либо вручную, снимая с каждого файла галку( скрин №1)
* либо, нажав кнопку "Снять метки (Select None)", сняв сразу со всех файлов(скрин №2)
№1

№2

Оставляем только на нужных нам файлах (файле).

3)Нажать О.К
-- -- --Внимание!!! 21.08. 2020. РАЗДАЧА ОБНОВЛЕНА. ДОБАВЛЕНА - 13 -14-15-16- СЕРИЯ . ФИНАЛ СЕЗОНА . ОБНОВИТЕ ТОРЕНТ ФАЙЛ. ПРИЯТНОГО ПРОСМОТРА . Поблагодарить:
ЯД: 410017546713876
--Релиз от: Nikolai.Baranov & PIRATIYA -- -- -- --Время раздачи : 24/7---
Скачать

Скачать торрент! Ростов / Rostov (Сезон 1 , Серия 1-16 из 16) ( Павел Дроздов) [2019, Детектив, история , WEB-DLRip - HEVC - 1080p]

Как скачивать? · Что такое торрент? · Рейтинг и ограничения

Сайт не распространяет и не хранит электронные версии произведений, а лишь предоставляет доступ к создаваемому пользователями каталогу ссылок на торрент-файлы, которые содержат только списки хеш-сумм

загрузка...

_________________

Легко быть оптимистом, когда судьба не валит с ног тяжелыми ударами, а лишь иногда легонько шлепает по заднице.
[Профиль] [ЛС]
Показать сообщения:    
Ответить на тему

Текущее время: Сегодня 03:30

Часовой пояс: GMT + 4



Вы не можете начинать темы
Вы не можете отвечать на сообщения
Вы не можете редактировать свои сообщения
Вы не можете удалять свои сообщения
Вы не можете голосовать в опросах
Вы не можете прикреплять файлы к сообщениям
Вы не можете скачивать файлы