Трансформеры: Война за Кибертрон / Transformers: War For Cybertron (Сезон 1 , Серия 1-6 из 6) (Джеймс Барбатано, Брэндон Истон) [2020, Мультсериал,WEB-DL - HEVC-HDR- 10 - 1080p] [LostFilm+ Eng]+[Subs Rus , ENG]

Ответить на тему
 
Автор Сообщение

Nikolai.Baranov ®

Пост Пост: #1 от 09-Авг-2020 16:11

[Цитировать]

---- Трансформеры: Война за Кибертрон / Transformers: War For Cybertron (Сезон 1 , Серия 1-6 из 6) - Полный Комплект -- --Год выпуска: 2020
Выпущено: США , Hasbro Inc., Netflix Studios, Polygon Pictures, Rooster Teeth Animation
Жанр: Мультсериал, фантастика, боевик
Продолжительность: 00:25:00
Сезон:1
Серия:1-6
Количество серий в сезоне: 6--Озвучка 1: Профессиональный многоголосый- LostFilm - Русский
Озвучка #2: Профессиональный многоголосый -Английский - Оригинал--Субтитры (UTF-8): вшитые
#1 - Русские (включены по умолчанию)
#2 - English (SDH)
#3 - English (Original)
#4 - English (Forced)--Внешние:
#1 - Русские
#2 - English (SDH)
#3 - English (Original)
#4 - English (Forced)
--Релиз Без Рекламы --MDB 7.7 Кинопоиск --Режиссеры:
Джеймс Барбатано, Брэндон Истон, Гэвин Хайнайт --В ролях: Эдвард Боско, Брук Чалмерс, Джейк Фуши, Рафаэль Голдштейн, Тодд Хаберкорн, Шон Хоукинс, Софиа Изабелла, Эрик Кайзер Джонсон, Майлз Луна, Джейсон Марноха-- В разгар непрекращающейся войны на планете Кибертрон армии добра и зла сталкиваются, когда ищут источник своей силы. Возможно, это не та жизнь, которую они себе представляли, но это жизнь, за которую стоит бороться..-- --Качество : WEB-DL - HEVC-HDR- 10 - 1080p
Формат: MKV
Видео кодек: H265
Видео: 5550 Кбит/сек,1920х1080(16.9),в 24.000кадр/сек, HEVC (Main10@L4@Main@Main) , HDR10--Аудио Кодек:Аудио Кодек:AC3
Аудио #1: MVO LostFilm @ DD5.1 AC3, 640 Kbps, 48.0 KHz, 6 ch - LostFilm - Русский
Аудио #2: Original@DD5.1 E-AC3 ,768 Kbps, 48.0 KHz, 6 ch - English - Оригинал-

Доп. информация:

Звуковая дорожка сделана путем наложения чистого голоса озвучивателей на центральный канал оригинальной дорожки. Качество идентично звуковой дорожке.
--

Список эпизодов сезона


1 сезон 1 серия - 1 серия - Episode #1.1
1 сезон 2 серия - 2 серия - Episode #1.2
1 сезон 3 серия - 3 серия - Episode #1.3
1 сезон 3 серия - 4 серия - Episode #1.4
1 сезон 5 серия - 5 серия - Episode #1.5
1 сезон 6 серия - 6 серия - Episode #1.6
--

MediaInfo

Общее
Уникальный идентификатор : 311224580033406849717947198605382246843 (0xEA23AC7EEA3843A61C3097205741E1BB)
Полное имя : D:\PIRATIYA\Трансформеры Война за Кибертрон - Transformers War For Cybertron\Transformers.War.For.Cybertron.Trilogy_S01_2020_HEVC_Н265_DD5.1_N.B_ HD_1080_Rus_Eng\Transformers.War.For.Cybertron.Trilogy.S01E01_HEVC_DD5.1_N.B_HDR_1080_Rus_Eng.mkv
Формат : Matroska
Версия формата : Version 4
Размер файла : 1,19 Гбайт
Продолжительность : 24 м. 54 с.
Общий поток : 6 832 Кбит/сек
Название фильма : Transformers War For Cybertron S01E01 2020 @ Nikolai.Baranov & PIRATIYA
Дата кодирования : UTC 2020-08-08 17:22:47
Программа кодирования : mkvmerge v49.0.0 ('Sick Of Losing Soulmates') 64-bit
Библиотека кодирования : libebml v1.4.0 + libmatroska v1.6.1 / Lavf58.29.100
Видео
Идентификатор : 1
Формат : HEVC
Формат/Информация : High Efficiency Video Coding
Профиль формата : Main 10@L4@Main
HDR format : SMPTE ST 2086, HDR10 compatible
Идентификатор кодека : V_MPEGH/ISO/HEVC
Продолжительность : 24 м. 19 с.
Битрейт : 5 550 Кбит/сек
Ширина : 1 920 пикселей
Высота : 1 080 пикселей
Соотношение сторон : 16:9
Режим частоты кадров : Постоянный
Частота кадров : 24,000 кадра/сек
Цветовое пространство : YUV
Субдискретизация насыщенности : 4:2:0 (Type 2)
Битовая глубина : 10 бит
Бит/(Пиксели*Кадры) : 0.112
Размер потока : 966 Мбайт (79%)
Заголовок : Transformers.War.For.Cybertron.Trilogy.S01E01_HEVC_DD5.1_N.B_HDR_1080_Rus_Eng
Язык : Russian
Default : Да
Forced : Нет
Цветовой диапазон : Limited
Основные цвета : BT.2020
Характеристики трансфера : PQ
Коэффициенты матрицы : BT.2020 non-constant
Mastering display color primaries : Display P3
Mastering display luminance : min: 0.0001 cd/m2, max: 1000 cd/m2
Maximum Content Light Level : 723 cd/m2
Maximum Frame-Average Light Level : 381 cd/m2
Аудио #1
Идентификатор : 3
Формат : AC-3
Формат/Информация : Audio Coding 3
Коммерческое название : Dolby Digital
Идентификатор кодека : A_AC3
Продолжительность : 24 м. 54 с.
Вид битрейта : Постоянный
Битрейт : 640 Кбит/сек
Каналы : 6 каналов
Channel layout : L R C LFE Ls Rs
Частота : 48,0 КГц
Частота кадров : 31,250 кадров/сек (1536 SPF)
Метод сжатия : С потерями
Размер потока : 114 Мбайт (9%)
Заголовок : MVO LostFilm @DD5.1 AC3, 640 Kbps, 48.0 KHz, 6 ch
Язык : Russian
Service kind : Complete Main
Default : Да
Forced : Нет
Аудио #2
Идентификатор : 4
Формат : E-AC-3 JOC
Формат/Информация : Enhanced AC-3 with Joint Object Coding
Коммерческое название : Dolby Digital Plus with Dolby Atmos
Идентификатор кодека : A_EAC3
Продолжительность : 24 м. 54 с.
Вид битрейта : Постоянный
Битрейт : 768 Кбит/сек
Каналы : 6 каналов
Channel layout : L R C LFE Ls Rs
Частота : 48,0 КГц
Частота кадров : 31,250 кадров/сек (1536 SPF)
Метод сжатия : С потерями
Размер потока : 137 Мбайт (11%)
Заголовок : Original@DD5.1 E-AC3 ,768 Kbps, 48.0 KHz, 6 ch
Язык : English
Service kind : Complete Main
Default : Нет
Forced : Нет
Complexity index : 16
Number of dynamic objects : 15
Bed channel count : 1 канал
Bed channel configuration : LFE
Текст #1
Идентификатор : 2
Формат : UTF-8
Идентификатор кодека : S_TEXT/UTF8
Идентификатор кодека/Информация : UTF-8 Plain Text
Продолжительность : 23 м. 56 с.
Битрейт : 76 бит/сек
Count of elements : 282
Размер потока : 13,5 Кбайт (0%)
Заголовок : Cерия #1.1-Russian
Язык : Russian
Default : Да
Forced : Нет
Текст #2
Идентификатор : 5
Формат : UTF-8
Идентификатор кодека : S_TEXT/UTF8
Идентификатор кодека/Информация : UTF-8 Plain Text
Продолжительность : 2 с. 958 мс.
Битрейт : 83 бит/сек
Count of elements : 1
Размер потока : 31,0 байт (0%)
Заголовок : Episode #1.1-Eng-Forced
Язык : English
Default : Нет
Forced : Нет
Текст #3
Идентификатор : 6
Формат : UTF-8
Идентификатор кодека : S_TEXT/UTF8
Идентификатор кодека/Информация : UTF-8 Plain Text
Продолжительность : 22 м. 40 с.
Битрейт : 63 бит/сек
Count of elements : 353
Размер потока : 10,5 Кбайт (0%)
Заголовок : Episode #1.1-Original - SDH
Язык : English
Default : Нет
Forced : Нет
Текст #4
Идентификатор : 7
Формат : UTF-8
Идентификатор кодека : S_TEXT/UTF8
Идентификатор кодека/Информация : UTF-8 Plain Text
Продолжительность : 21 м. 58 с.
Битрейт : 52 бит/сек
Count of elements : 278
Размер потока : 8,41 Кбайт (0%)
Заголовок : Episode #1.1-Original
Язык : English
Default : Нет
Forced : Нет
Меню
00:00:00.000 : ru:Глава 01 / ru:Глава 01 / ru:Глава 01 / ru:Глава 01 / ru:Глава 01 / ru:Глава 01 / ru:Глава 01
--

Скриншоты

-- --

Как закачать отдельный файл

1. Открыть торрент
2. Снять галки с тех файлов торрента, которые мы не хотим закачивать. Оставляем только на нужных нам файлах (файле).
3. Нажать О.К.
В клиенте utorrent
Инструкция
1) Открыть торрент

2) Снять галки с тех файлов торрента, которые мы не хотим закачивать:
* либо вручную, снимая с каждого файла галку( скрин №1)
* либо, нажав кнопку "Снять метки (Select None)", сняв сразу со всех файлов(скрин №2)
№1

№2

Оставляем только на нужных нам файлах (файле).

3)Нажать О.К
-- -- --Внимание!!! 20.08. 2020. РАЗДАЧА ОБНОВЛЕНА. ДОБАВЛЕНА - 5 -6- СЕРИЯ . Финал Сезона . ОБНОВИТЕ ТОРЕНТ ФАЙЛ. ПРИЯТНОГО ПРОСМОТРА . Поблагодарить:
ЯД: 410017546713876
--Релиз от: Nikolai.Baranov & PIRATIYA -- -- -- --Время раздачи : 24/7---
Скачать

Скачать торрент! Трансформеры: Война за Кибертрон / Transformers: War For Cybertron (Сезон 1 , Серия 1-6 из 6) (Джеймс Барбатано, Брэндон Истон) [2020, Мультсериал,WEB-DL - HEVC-HDR- 10 - 1080p] [LostFilm+ Eng]+[Subs Rus , ENG]

Как скачивать? · Что такое торрент? · Рейтинг и ограничения

Сайт не распространяет и не хранит электронные версии произведений, а лишь предоставляет доступ к создаваемому пользователями каталогу ссылок на торрент-файлы, которые содержат только списки хеш-сумм

 
Показать сообщения:    
Ответить на тему

Текущее время: Сегодня 19:33

Часовой пояс: GMT + 4



Вы не можете начинать темы
Вы не можете отвечать на сообщения
Вы не можете редактировать свои сообщения
Вы не можете удалять свои сообщения
Вы не можете голосовать в опросах
Вы не можете прикреплять файлы к сообщениям
Вы не можете скачивать файлы