Окаянные дни / Cursed days (Сезон 1 , Серия 1-10 из 10) (Андрей Болтенко, Ирина Вилкова) [2020, Комедия,WEB-DLRip - HEVC 10bit 1080p]

Ответить на тему
 
Автор Сообщение

Nikolai.Baranov ®

Пол:

Стаж: 3 года 4 месяца

Сообщений: 203

Откуда: Красногорск

Пост Пост: #1 от 11-Июн-2020 19:05

[Цитировать]

---- Окаянные дни / Cursed days - (Сезон 1 , Серия 1-10 из 10) - Полный Комплект -- --Год выпуска: 2020
Выпущено: Россия , Comedy Club Production
Жанр: Комедия
Продолжительность: 00:27:00
Сезон:1
Серия:1-10
Количество серий в сезоне:10--Озвучка #1: Русский --Релиз Без Рекламы - Ненормативная лексика -- --Режиссеры:
Андрей Болтенко, Ирина Вилкова, Пётр Буслов, Максим Пежемский, Роман Волобуев, Владимир Епифанцев--В ролях: Фёдор Бондарчук, Анна Михалкова, Павел Деревянко, Александр Робак, Татьяна Догилева, Тимофей Трибунцев, Юлия Топольницкая, Владимир Епифанцев, Мария Машкова, Александр Ильин, Ольга Дибцева, Никита Тарасов, Дмитрий Лысенков, Светлана Камынина, Григорий Калинин, Даниил Воробьёв, Елена Валюшкина, Ольга Виниченко-- Дивный новый мир удаленки создал новое существо, человека эпохи самоизоляции, и породил удивительные истории, которые вряд ли бы произошли при других обстоятельствах.
Ученому-энтомологу Виктору коллеги вручили купон на сеанс тайского массажа, но вместо удовольствия ботаник получил 2 недели совершенного неожиданного карантина вдали от дома.
Оппозиционер Саша перепостил информацию с критикой отечественной медицины. Пост прочитал его брат - чиновник из столичной мэрии - и попросил немедленно все снести.
Чтобы прокормить семью, привыкшую к ежедневным стейкам рибай, швейцарскому мороженому и суши, инспектор ДПС Коготков придумывает хитроумный план по дистанционному выманиванию взятки у автолюбителя.
А Димон должен Костяну приличную сумму денег, но возвращать не торопится. Костян нанимает мордоворота Витю, чтобы тот отправился к Димону и забрал долг.
-- --Качество : -WEB-DLRip - HEVC 10bit - 1080p.
Формат: MKV
Видео кодек: H265
Видео: 3076 Кбит/сек,1904х968(1.967),в 25.000 кадр/сек, HEVC (Main10@L5.2@Main)--Аудио Кодек: AC3
Аудио #1: @DD5.1 AC3 , 384 Kbps, 48.0 KHz, 6 ch -Русский--

Доп. информация:

Звуковая дорожка сделана путем наложения чистого голоса озвучивателей на центральный канал оригинальной дорожки. Качество идентично звуковой дорожке.
--

MediaInfo

Общее
Уникальный идентификатор : 133924216904562515008649762162813184428 (0x64C0DDAFA75090A683DC67B75FF829AC)
Полное имя : E:\Baranov\Окаянные дни - Cursed days\Cursed_days_202_S01_HEVC- 10Bit_Н265_DD5.1_N.B_HD_1080_Rus_\Cursed_days_2020_S01E01_HEVC_DD5.1_N.B_HD_1080_Rus.mkv
Формат : Matroska
Версия формата : Version 4
Размер файла : 682 Мбайт
Продолжительность : 27 м. 32 с.
Общий поток : 3 462 Кбит/сек
Название фильма : Cursed days 2020 S01E01 @ Nikolai.Baranov & PIRATIYA
Дата кодирования : UTC 2020-06-11 11:40:19
Программа кодирования : mkvmerge v47.0.0 ('Black Flag') 64-bit
Библиотека кодирования : libebml v1.3.10 + libmatroska v1.5.2
Видео
Идентификатор : 1
Формат : HEVC
Формат/Информация : High Efficiency Video Coding
Профиль формата : Main 10@L5.2@Main
Идентификатор кодека : V_MPEGH/ISO/HEVC
Продолжительность : 27 м. 32 с.
Битрейт : 3 076 Кбит/сек
Ширина : 1 904 пикселя
Высота : 968 пикселей
Соотношение сторон : 1,967
Режим частоты кадров : Постоянный
Частота кадров : 25,000 кадров/сек
Цветовое пространство : YUV
Субдискретизация насыщенности : 4:2:0
Битовая глубина : 10 бит
Бит/(Пиксели*Кадры) : 0.067
Размер потока : 606 Мбайт (89%)
Заголовок : Cursed_days_2020_S01E01_HEVC_DD5.1_N.B_HD_1080_Rus
Язык : Russian
Default : Да
Forced : Нет
Цветовой диапазон : Full
Основные цвета : BT.709
Характеристики трансфера : BT.709
Коэффициенты матрицы : BT.709
Аудио
Идентификатор : 2
Формат : AC-3
Формат/Информация : Audio Coding 3
Коммерческое название : Dolby Digital
Идентификатор кодека : A_AC3
Продолжительность : 27 м. 32 с.
Вид битрейта : Постоянный
Битрейт : 384 Кбит/сек
Каналы : 6 каналов
Channel layout : L R C LFE Ls Rs
Частота : 48,0 КГц
Частота кадров : 31,250 кадров/сек (1536 SPF)
Метод сжатия : С потерями
Размер потока : 75,6 Мбайт (11%)
Заголовок : Original@DD5.1 AC3 , 384 Kbps, 48.0 KHz, 6 ch
Язык : Russian
Service kind : Complete Main
Default : Да
Forced : Нет
Меню
00:00:00.000 : ru:Глава 01 / ru:Глава 01
--

Скриншоты

--
Внимание! Раздача пополняется по мере выхода новых серий!--

Как закачать отдельный файл

1. Открыть торрент
2. Снять галки с тех файлов торрента, которые мы не хотим закачивать. Оставляем только на нужных нам файлах (файле).
3. Нажать О.К.
В клиенте utorrent
Инструкция
1) Открыть торрент

2) Снять галки с тех файлов торрента, которые мы не хотим закачивать:
* либо вручную, снимая с каждого файла галку( скрин №1)
* либо, нажав кнопку "Снять метки (Select None)", сняв сразу со всех файлов(скрин №2)
№1

№2

Оставляем только на нужных нам файлах (файле).

3)Нажать О.К
-- -- --Внимание!!! 17.07. 2020. РАЗДАЧА ОБНОВЛЕНА. ДОБАВЛЕНА -8-9-10- СЕРИЯ. Финал Сезона . ОБНОВИТЕ ТОРЕНТ ФАЙЛ. ПРИЯТНОГО ПРОСМОТРА . Поблагодарить:
ЯД: 410017546713876
--Релиз от: Nikolai.Baranov & PIRATIYA -- -- -- --Время раздачи : 24/7---
Скачать

Скачать торрент! Окаянные дни / Cursed days (Сезон 1 , Серия 1-10 из 10) (Андрей Болтенко, Ирина Вилкова) [2020, Комедия,WEB-DLRip - HEVC 10bit 1080p]

Как скачивать? · Что такое торрент? · Рейтинг и ограничения

Сайт не распространяет и не хранит электронные версии произведений, а лишь предоставляет доступ к создаваемому пользователями каталогу ссылок на торрент-файлы, которые содержат только списки хеш-сумм

загрузка...

_________________

Легко быть оптимистом, когда судьба не валит с ног тяжелыми ударами, а лишь иногда легонько шлепает по заднице.
[Профиль] [ЛС]
Показать сообщения:    
Ответить на тему

Текущее время: Сегодня 07:48

Часовой пояс: GMT + 4



Вы не можете начинать темы
Вы не можете отвечать на сообщения
Вы не можете редактировать свои сообщения
Вы не можете удалять свои сообщения
Вы не можете голосовать в опросах
Вы не можете прикреплять файлы к сообщениям
Вы не можете скачивать файлы