Открытие ведьм (Манускрипт всевластия) /A Discovery of Witches (Сезон 1 , Серия 1- 4 из 8) (Сара Уокер, Элис Тротон) [2018,Фэнтези, драма, мелодрама,BluRay - HEVC 10bit - 1080p] [LostFilm+Кубик в Кубе +Новамедиа +Eng]+[Subs Rus , ENG]

Ответить на тему
 
Автор Сообщение

Nikolai.Baranov ®

Пол:

Стаж: 2 года 10 месяцев

Сообщений: 169

Откуда: Красногорск

Пост Пост: #1 от 19-Май-2020 23:27

[Цитировать]

---- -- Открытие ведьм (Манускрипт всевластия) /A Discovery of Witches (Сезон 1 , Серия 1- 4 из 8) -- --Год выпуска: 2018
Выпущено: США, Великобритания
Жанр: Фэнтези, драма, мелодрама
Продолжительность: 00:50:00
Сезон:1
Серия:1-4
Количество серий в сезоне:8--Озвучка #1: Профессиональный многоголосый - LostFilm - Русский
Озвучка #2: Профессиональный многоголосый - Кубик в Кубе - Русский
Озвучка #3: Профессиональный многоголосый - Новамедиа - Русский
Озвучка #4: Профессиональный многоголосый -Английский - Оригинал
Субтитры: Russian , English,
--Релиз Без Рекламы --MDB 8.1 --Режиссеры:
Сара Уокер, Элис Тротон, Сара Уолкер, Хуан Карлос Медина--В ролях: Мэттью Гуд, Тереза Палмер, Оуэн Тил, Малин Буска, Тревор Ив, Аийша Харт, Джулиан Костов, Нила Аалия, Пино Майелло, Алекс Кингстон--
Когда-то мир был полон чудес, но теперь в нем правят люди, а вампиры, демоны и ведьмы находятся на грани исчезновения. Те, кто остался, прячутся у всех на виду, боясь открыться даже себе подобным. Диана Бишоп (Тереза Палмер) — потомственная ведьма, но пользоваться своими магическими способностями она не умеет, а потому отказалась от предназначения и выбрала иной путь, путь науки. Судьба привела ее в Оксфорд, где она читает лекции по истории алхимии. Диане нравятся прогулки на велосипеде по идиллическим улочкам университетского городка, визиты в Бодлианскую библиотеку, где она часами может изучать книги об алхимии, погружаясь в мир магии и науки. Однажды в руки Дианы попадает альманах, который на деле оказывается книгой необычной. Столетиями ведьмы, демоны и вампиры пытались найти этот древний том, который, по слухам, хранит секрет сотворения самой жизни. Диана же оказалась единственной, кому открылась рукопись. Теперь все сверхъестественные создания, в том числе и профессор, а по совместительству вампир, Мэттью Клэрмонт (Мэттью Гуд), хотят заполучить ее. Его отношения с Дианой выходят за рамки профессиональных, но смогут ли герои вдвоем выстоять против сборища существ, руководствующихся далеко не благими намерениями?..-- --Качество :BluRay - HEVC 10bit - 1080p.
Формат: MKV
Видео кодек: H265
Видео: 3015Кбит/сек,1920х960(2.000),,в 25.000кадр/сек, HEVC (Main10@L4@Main)--Аудио Кодек:AC3
Аудио #1: MVO LostFilm @ DD5.1 AC3, 640 Kbps, 48.0 KHz, 6 ch - LostFilm - Русский
Аудио #2: MVO Кубик в Кубе @DD5.1 AC3, 384 Kbps, 48.0 KHz, 6 chh- Кубик в Кубе - Русский
Аудио #3: MVO Новамедиа @DD5.1 AC3, 384 Kbps, 48.0 KHz, 6 ch- Новамедиа - Русский
Аудио #4: Original@DD5.1 AC3 , 640 Kbps, 48.0 KHz, 6 ch - English - Оригинал--

Доп. информация:

Звуковая дорожка сделана путем наложения чистого голоса озвучивателей на центральный канал оригинальной дорожки. Качество идентично звуковой дорожке.
--

MediaInfo 1Сезон

Общее
Уникальный идентификатор : 169423182039328454215015228005409707856 (0x7F75B7CBFBC6D3C740DE64F1D1D15750)
Полное имя : F:\Nikolai.Baranov & PIRATIYA\Открытие ведьм (Манускрипт всевластия) - A Discovery of Witches\A_Discovery_of_Witches_2018_S01_HEVC_Н265_DD5.1_N.B_BluRay _1080_3xRus_Eng\A_Discovery_of_Witches_S01E01_HEVC_Н265_DD5.1_N.B_BluRay _1080_3xRus_Eng.mkv
Формат : Matroska
Версия формата : Version 4
Размер файла : 1,59 Гбайт
Продолжительность : 44 м. 54 с.
Общий поток : 5 075 Кбит/сек
Название фильма : A Discovery of Witches 2018 S01E01 @ Nikolai.Baranov & PIRATIYA
Дата кодирования : UTC 2020-05-19 07:36:20
Программа кодирования : mkvmerge v46.0.0 ('No Deeper Escape') 64-bit
Библиотека кодирования : libebml v1.3.10 + libmatroska v1.5.2 / Lavf58.20.100
Видео
Идентификатор : 1
Формат : HEVC
Формат/Информация : High Efficiency Video Coding
Профиль формата : Main 10@L4@Main
Идентификатор кодека : V_MPEGH/ISO/HEVC
Продолжительность : 44 м. 54 с.
Битрейт : 3 015 Кбит/сек
Ширина : 1 920 пикселей
Высота : 960 пикселей
Соотношение сторон : 2,000
Режим частоты кадров : Постоянный
Частота кадров : 25,000 кадров/сек
Цветовое пространство : YUV
Субдискретизация насыщенности : 4:2:0
Битовая глубина : 10 бит
Бит/(Пиксели*Кадры) : 0.065
Размер потока : 968 Мбайт (59%)
Заголовок : A_Discovery_of_Witches_S01E01_HEVC_Н265_DD5.1_N.B_BluRay _1080_3xRus_Eng
Библиотека кодирования : x265 2.9+8-27d8424c799d:[Windows][MSVC 1900][64 bit] 10bit
Настройки программы : cpuid=1111039 / frame-threads=4 / numa-pools=16 / wpp / no-pmode / no-pme / no-psnr / no-ssim / log-level=2 / input-csp=1 / input-res=1920x960 / interlace=0 / total-frames=67350 / level-idc=0 / high-tier=1 / uhd-bd=0 / ref=4 / no-allow-non-conformance / no-repeat-headers / annexb / no-aud / no-hrd / info / hash=0 / no-temporal-layers / open-gop / min-keyint=25 / keyint=250 / gop-lookahead=0 / bframes=8 / b-adapt=2 / b-pyramid / bframe-bias=0 / rc-lookahead=60 / lookahead-slices=4 / scenecut=40 / radl=0 / no-intra-refresh / ctu=64 / min-cu-size=8 / no-rect / no-amp / max-tu-size=32 / tu-inter-depth=1 / tu-intra-depth=1 / limit-tu=0 / rdoq-level=2 / dynamic-rd=0.00 / no-ssim-rd / signhide / no-tskip / nr-intra=0 / nr-inter=0 / no-constrained-intra / no-strong-intra-smoothing / max-merge=3 / limit-refs=3 / limit-modes / me=3 / subme=5 / merange=57 / temporal-mvp / weightp / weightb / no-analyze-src-pics / deblock=-3:-3 / no-sao / no-sao-non-deblock / rd=4 / no-early-skip / rskip / no-fast-intra / no-tskip-fast / no-cu-lossless / b-intra / no-splitrd-skip / rdpenalty=0 / psy-rd=1.50 / psy-rdoq=1.50 / no-rd-refine / no-lossless / cbqpoffs=0 / crqpoffs=0 / rc=crf / crf=20.5 / qcomp=0.60 / qpstep=4 / stats-write=0 / stats-read=0 / ipratio=1.40 / pbratio=1.30 / aq-mode=3 / aq-strength=1.00 / cutree / zone-count=0 / no-strict-cbr / qg-size=32 / no-rc-grain / qpmax=69 / qpmin=0 / no-const-vbv / sar=0 / overscan=0 / videoformat=5 / range=0 / colorprim=2 / transfer=2 / colormatrix=2 / chromaloc=0 / display-window=0 / max-cll=0,0 / min-luma=0 / max-luma=1023 / log2-max-poc-lsb=8 / vui-timing-info / vui-hrd-info / slices=1 / no-opt-qp-pps / no-opt-ref-list-length-pps / no-multi-pass-opt-rps / scenecut-bias=0.05 / no-opt-cu-delta-qp / no-aq-motion / no-hdr / no-hdr-opt / no-dhdr10-opt / no-idr-recovery-sei / analysis-reuse-level=5 / scale-factor=0 / refine-intra=0 / refine-inter=0 / refine-mv=0 / no-limit-sao / ctu-info=0 / no-lowpass-dct / refine-mv-type=0 / copy-pic=1 / max-ausize-factor=1.0 / no-dynamic-refine / no-single-sei
Язык : Russian
Default : Да
Forced : Нет
Аудио #1
Идентификатор : 3
Формат : AC-3
Формат/Информация : Audio Coding 3
Коммерческое название : Dolby Digital
Идентификатор кодека : A_AC3
Продолжительность : 44 м. 53 с.
Вид битрейта : Постоянный
Битрейт : 640 Кбит/сек
Каналы : 6 каналов
Channel layout : L R C LFE Ls Rs
Частота : 48,0 КГц
Частота кадров : 31,250 кадров/сек (1536 SPF)
Метод сжатия : С потерями
Задержка видео : -80 мс.
Размер потока : 206 Мбайт (13%)
Заголовок : MVO .LostFilm @DD5.1 AC3, 640 Kbps, 48.0 KHz, 6 ch
Язык : Russian
Service kind : Complete Main
Default : Да
Forced : Нет
Аудио #2
Идентификатор : 4
Формат : AC-3
Формат/Информация : Audio Coding 3
Коммерческое название : Dolby Digital
Идентификатор кодека : A_AC3
Продолжительность : 44 м. 54 с.
Вид битрейта : Постоянный
Битрейт : 384 Кбит/сек
Каналы : 6 каналов
Channel layout : L R C LFE Ls Rs
Частота : 48,0 КГц
Частота кадров : 31,250 кадров/сек (1536 SPF)
Метод сжатия : С потерями
Задержка видео : -80 мс.
Размер потока : 123 Мбайт (8%)
Заголовок : MVO Кубик в Кубе @DD5.1 AC3, 384 Kbps, 48.0 KHz, 6 ch
Язык : Russian
Service kind : Complete Main
Default : Нет
Forced : Нет
Аудио #3
Идентификатор : 5
Формат : AC-3
Формат/Информация : Audio Coding 3
Коммерческое название : Dolby Digital
Идентификатор кодека : A_AC3
Продолжительность : 44 м. 54 с.
Вид битрейта : Постоянный
Битрейт : 384 Кбит/сек
Каналы : 6 каналов
Channel layout : L R C LFE Ls Rs
Частота : 48,0 КГц
Частота кадров : 31,250 кадров/сек (1536 SPF)
Метод сжатия : С потерями
Задержка видео : -80 мс.
Размер потока : 123 Мбайт (8%)
Заголовок : MVO Новамедиа @DD5.1 AC3, 384 Kbps, 48.0 KHz, 6 ch
Язык : Russian
Service kind : Complete Main
Default : Нет
Forced : Нет
Аудио #4
Идентификатор : 8
Формат : AC-3
Формат/Информация : Audio Coding 3
Коммерческое название : Dolby Digital
Идентификатор кодека : A_AC3
Продолжительность : 44 м. 54 с.
Вид битрейта : Постоянный
Битрейт : 640 Кбит/сек
Каналы : 6 каналов
Channel layout : L R C LFE Ls Rs
Частота : 48,0 КГц
Частота кадров : 31,250 кадров/сек (1536 SPF)
Метод сжатия : С потерями
Задержка видео : -80 мс.
Размер потока : 206 Мбайт (13%)
Заголовок : Original@DD5.1 AC3 ,640 Kbps, 48.0 KHz, 6 ch
Язык : English
Service kind : Complete Main
Default : Нет
Forced : Нет
Текст #1
Идентификатор : 2
Формат : UTF-8
Идентификатор кодека : S_TEXT/UTF8
Идентификатор кодека/Информация : UTF-8 Plain Text
Продолжительность : 44 м. 16 с.
Битрейт : 74 бит/сек
Count of elements : 482
Размер потока : 24,0 Кбайт (0%)
Заголовок : Russian
Язык : Russian
Default : Да
Forced : Нет
Текст #2
Идентификатор : 6
Формат : PGS
Режим смешивания : zlib
Идентификатор кодека : S_HDMV/PGS
Идентификатор кодека/Информация : Picture based subtitle format used on BDs/HD-DVDs
Продолжительность : 43 м. 54 с.
Битрейт : 36,7 Кбит/сек
Count of elements : 1028
Размер потока : 11,5 Мбайт (1%)
Заголовок : Original
Язык : English
Default : Нет
Forced : Нет
Текст #3
Идентификатор : 7
Формат : UTF-8
Идентификатор кодека : S_TEXT/UTF8
Идентификатор кодека/Информация : UTF-8 Plain Text
Продолжительность : 43 м. 55 с.
Битрейт : 46 бит/сек
Count of elements : 447
Размер потока : 14,9 Кбайт (0%)
Заголовок : Original
Язык : English
Default : Нет
Forced : Нет
Меню
00:00:00.000 : en:Chapter 1
00:11:58.480 : en:Chapter 2
00:23:26.520 : en:Chapter 3
00:34:14.320 : en:Chapter 4
--

Скриншоты

--
1Сезон
--Внимание! Раздача пополняется по мере выхода новых серий!--

Внимание! Раздача ведётся путём добавления новых серий!

Раздача ведётся путём добавления новых серий; при каждом добавлении создётся новый торрент.
Чтобы начать докачку новой серии, пользователям необходимо сделать следующее:
1. остановить скачивание,
2. удалить старый торрент у себя из клиента (старые серии удалять не надо),
3. скачать новый торрент и запустить его у себя в клиенте вместо старого, при этом указать клиенту путь в старую папку, куда и должно происходить скачивание новых серий.
Ваш клиент при этом должен произвести хеширование (проверку) старой папки (если не производит сам - помогите ему сделать это), и будет докачивать только те серии которых у вас ещё нет. Старые серии при этом не удаляются, а продолжают раздаваться!
Eсли вы уже удалили старые серии, то предотвратить повторную закачку старых серий можно, отжав галочку в соответсвующих местах при запуске нового торрента. По возможности, желательно не удалять старые серии как можно дольше, чтобы релизёр не столько продолжал раздавать старые серии, а смог сконцентрироваться на новых.
Совет для тех, кто не хочет ждать перехеширования:
Создайте ещё одну папку рядом с папкой сериала (рядом, а не в ней!!!). Каждую новую серию после удачной загрузки копируйте в новую папку так чтобы ваша основная папка всегда была пуста. Когда ваш новый торрент предложит вам закачать все файлы, выберете только последнюю. Для сидирования же укажите адрес новой папки.
Как закачать отдельный файл из торрента или докачать ранее пропущенные файлы торрента!

Как закачать отдельный файл

1. Открыть торрент
2. Снять галки с тех файлов торрента, которые мы не хотим закачивать. Оставляем только на нужных нам файлах (файле).
3. Нажать О.К.
В клиенте utorrent
Инструкция
1) Открыть торрент

2) Снять галки с тех файлов торрента, которые мы не хотим закачивать:
* либо вручную, снимая с каждого файла галку( скрин №1)
* либо, нажав кнопку "Снять метки (Select None)", сняв сразу со всех файлов(скрин №2)
№1

№2

Оставляем только на нужных нам файлах (файле).

3)Нажать О.К
-- -- --Внимание!!! 23.05 2020. РАЗДАЧА ОБНОВЛЕНА. ДОБАВЛЕНА -4- СЕРИЯ - 2 СЕЗОНА . ОБНОВИТЕ ТОРЕНТ ФАЙЛ. ПРИЯТНОГО ПРОСМОТРА . Поблагодарить:
ЯД: 410017546713876
--Релиз от: Nikolai.Baranov & PIRATIYA -- -- -- --Время раздачи : 24/7---
Скачать

Скачать торрент! Открытие ведьм (Манускрипт всевластия) /A Discovery of Witches (Сезон 1 , Серия 1- 4 из 8) (Сара Уокер, Элис Тротон) [2018,Фэнтези, драма, мелодрама,BluRay - HEVC 10bit - 1080p] [LostFilm+Кубик в Кубе +Новамедиа +Eng]+[Subs Rus , ENG]

Как скачивать? · Что такое торрент? · Рейтинг и ограничения

Сайт не распространяет и не хранит электронные версии произведений, а лишь предоставляет доступ к создаваемому пользователями каталогу ссылок на торрент-файлы, которые содержат только списки хеш-сумм

загрузка...

_________________

Легко быть оптимистом, когда судьба не валит с ног тяжелыми ударами, а лишь иногда легонько шлепает по заднице.
[Профиль] [ЛС]
Показать сообщения:    
Ответить на тему

Текущее время: Сегодня 15:12

Часовой пояс: GMT + 4



Вы не можете начинать темы
Вы не можете отвечать на сообщения
Вы не можете редактировать свои сообщения
Вы не можете удалять свои сообщения
Вы не можете голосовать в опросах
Вы не можете прикреплять файлы к сообщениям
Вы не можете скачивать файлы