Зов предков / The Call of the Wild (Крис Сандерс) [ 2020, Драма, приключения, семейный,WEB-DLRip - HEVC 1080p] [HDrezka+ENG]+[Subs ENG]

Ответить на тему
 
Автор Сообщение

Nikolai.Baranov ®

Пост Пост: #1 от 05-Апр-2020 12:52

[Цитировать]

---- Зов предков / The Call of the Wild ---- --Год выпуска: 2020
Выпущено: США, Канада, 3 Arts Entertainment, Twentieth Century Fox Animation, Twentieth Century
Жанр: Драма, приключения, семейный
Продолжительность: : 01:40:24--Озвучка #1: Профессиональный многоголосый - HDrezka Studio - Русский
Озвучка #2: Профессиональный многоголосый -Английский - Оригинал
Субтитры: English SDH
-- Релиз Без Рекламы -- MDB 6.8 --Режиссеры:
Крис Сандерс--В ролях: Карен Гиллан, Харрисон Форд, Кара Ги, Дэн Стивенс, Брэдли Уитфорд, Джин Луиса Келли, Майкл Хорс, Мика Фицджералд, Терри Нотари, Омар Си, Колин Вуделл, Абрахам Бенруби-- История Бака, дружелюбного пса, чья размеренная домашняя жизнь перевернулась с ног на голову во времена золотой лихорадки в 1880-х, когда его вырвали из дома в Калифорнии и перевезли в дикую и холодную Аляску. Будучи новичком в упряжке почтовой службы, а впоследствии лидером, Бак попадает в невероятное приключение, находит свое место в мире и становится хозяином своей жизни.-- --Качество :WEB-DLRip - HEVC 10bit - 1080p
Формат: MKV
Видео кодек: H265
Видео: 2000Кбит/сек,1920х800(2.40.1),в 23.976кадр/сек, HEVC (Main10@L4@Main)--Аудио Кодек:AC3
Аудио #1: MVO HDRezka Studio @DD5.1 AC3, 640 Kbps, 48.0 KHz, 6 ch - HDrezka Studio -Русский
Аудио #2: Original@DD5.1 AC3 , 640 Kbps, 48.0 KHz, 6 ch - English - Оригинал--

Доп. информация:

Звуковая дорожка сделана путем наложения чистого голоса озвучивателей на центральный канал оригинальной дорожки. Качество идентично звуковой дорожке.
--

MediaInfo

Общее
Уникальный идентификатор : 210875466403179305712028709165344171012 (0x9EA523350D2B440607410FFC87E32404)
Полное имя : E:\RussianPatriot\Зов предков - The Call of the Wild\The_Call_of_the_Wild_2020_HEVC- 10Bit_Н265_DD5.1_N.B_HD_1080_Rus_Eng\The_Call_of_the_Wild_2020_HEVC_Н265_DD5.1_N.B_HD_1080_Rus_Eng.mkv
Формат : Matroska
Версия формата : Version 4
Размер файла : 2,29 Гбайт
Продолжительность : 1 ч. 39 м.
Общий поток : 3 283 Кбит/сек
Название фильма : The Call of the Wild 2020 @ Nikolai.Baranov & PIRATIYA
Дата кодирования : UTC 2020-04-05 07:00:39
Программа кодирования : mkvmerge v45.0.0 ('Heaven in Pennies') 64-bit
Библиотека кодирования : libebml v1.3.10 + libmatroska v1.5.2 / Lavf58.20.100
Видео
Идентификатор : 1
Формат : HEVC
Формат/Информация : High Efficiency Video Coding
Профиль формата : Main 10@L4@Main
Идентификатор кодека : V_MPEGH/ISO/HEVC
Продолжительность : 1 ч. 39 м.
Битрейт : 2 000 Кбит/сек
Ширина : 1 920 пикселей
Высота : 800 пикселей
Соотношение сторон : 2,40:1
Режим частоты кадров : Постоянный
Частота кадров : 23,976 (24000/1001) кадра/сек
Цветовое пространство : YUV
Субдискретизация насыщенности : 4:2:0
Битовая глубина : 10 бит
Бит/(Пиксели*Кадры) : 0.054
Размер потока : 1,39 Гбайт (61%)
Заголовок : The_Call_of_the_Wild_2020_HEVC_Н265_DD5.1_N.B_HD_1080_Rus_Eng
Библиотека кодирования : x265 3.3+4-rarbg-30eb4de83092:[Linux][GCC 8.3.1][64 bit] 10bit
Настройки программы : cpuid=1111039 / frame-threads=4 / wpp / no-pmode / no-pme / no-psnr / no-ssim / log-level=2 / input-csp=1 / input-res=1920x800 / interlace=0 / total-frames=0 / level-idc=0 / high-tier=1 / uhd-bd=0 / ref=4 / no-allow-non-conformance / no-repeat-headers / annexb / no-aud / no-hrd / info / hash=0 / no-temporal-layers / open-gop / min-keyint=23 / keyint=250 / gop-lookahead=0 / bframes=4 / b-adapt=2 / b-pyramid / bframe-bias=0 / rc-lookahead=25 / lookahead-slices=4 / scenecut=40 / hist-scenecut=0 / radl=0 / no-splice / no-intra-refresh / ctu=64 / min-cu-size=8 / rect / no-amp / max-tu-size=32 / tu-inter-depth=1 / tu-intra-depth=1 / limit-tu=0 / rdoq-level=2 / dynamic-rd=0.00 / no-ssim-rd / signhide / no-tskip / nr-intra=0 / nr-inter=0 / no-constrained-intra / strong-intra-smoothing / max-merge=3 / limit-refs=3 / limit-modes / me=3 / subme=3 / merange=57 / temporal-mvp / no-frame-dup / no-hme / weightp / no-weightb / no-analyze-src-pics / deblock=0:0 / no-sao / no-sao-non-deblock / rd=4 / selective-sao=0 / no-early-skip / rskip / no-fast-intra / no-tskip-fast / no-cu-lossless / no-b-intra / no-splitrd-skip / rdpenalty=0 / psy-rd=2.00 / psy-rdoq=1.00 / no-rd-refine / no-lossless / cbqpoffs=0 / crqpoffs=0 / rc=abr / bitrate=2000 / qcomp=0.60 / qpstep=4 / stats-write=0 / stats-read=2 / cplxblur=20.0 / qblur=0.5 / ipratio=1.40 / pbratio=1.30 / aq-mode=3 / aq-strength=1.00 / cutree / zone-count=0 / no-strict-cbr / qg-size=32 / no-rc-grain / qpmax=69 / qpmin=0 / no-const-vbv / sar=1 / overscan=0 / videoformat=5 / range=0 / colorprim=2 / transfer=2 / colormatrix=2 / chromaloc=0 / display-window=0 / cll=0,0 / min-luma=0 / max-luma=1023 / log2-max-poc-lsb=8 / vui-timing-info / vui-hrd-info / slices=1 / no-opt-qp-pps / no-opt-ref-list-length-pps / no-multi-pass-opt-rps / scenecut-bias=0.05 / hist-threshold=0.01 / no-opt-cu-delta-qp / no-aq-motion / no-hdr10 / no-hdr10-opt / no-dhdr10-opt / no-idr-recovery-sei / analysis-reuse-level=0 / analysis-save-reuse-level=0 / analysis-load-reuse-level=0 / scale-factor=0 / refine-intra=0 / refine-inter=0 / refine-mv=1 / refine-ctu-distortion=0 / no-limit-sao / ctu-info=0 / no-lowpass-dct / refine-analysis-type=0 / copy-pic=1 / max-ausize-factor=1.0 / no-dynamic-refine / no-single-sei / no-hevc-aq / no-svt / no-field / qp-adaptation-range=1.00 / no-scenecut-aware-qpconformance-window-offsets / right=0 / bottom=0
Язык : Russian
Default : Да
Forced : Нет
Аудио #1
Идентификатор : 2
Формат : AC-3
Формат/Информация : Audio Coding 3
Коммерческое название : Dolby Digital
Идентификатор кодека : A_AC3
Продолжительность : 1 ч. 39 м.
Вид битрейта : Постоянный
Битрейт : 640 Кбит/сек
Каналы : 6 каналов
Channel layout : L R C LFE Ls Rs
Частота : 48,0 КГц
Частота кадров : 31,250 кадров/сек (1536 SPF)
Метод сжатия : С потерями
Размер потока : 456 Мбайт (19%)
Заголовок : MVO HDRezka Studio @DD5.1 AC3, 640 Kbps, 48.0 KHz, 6 ch
Язык : Russian
Service kind : Complete Main
Default : Да
Forced : Нет
Аудио #2
Идентификатор : 3
Формат : AC-3
Формат/Информация : Audio Coding 3
Коммерческое название : Dolby Digital
Идентификатор кодека : A_AC3
Продолжительность : 1 ч. 39 м.
Вид битрейта : Постоянный
Битрейт : 640 Кбит/сек
Каналы : 6 каналов
Channel layout : L R C LFE Ls Rs
Частота : 48,0 КГц
Частота кадров : 31,250 кадров/сек (1536 SPF)
Метод сжатия : С потерями
Размер потока : 456 Мбайт (19%)
Заголовок : Original@DD5.1 AC3 , 640 Kbps, 48.0 KHz, 6 ch
Язык : English
Service kind : Complete Main
Default : Нет
Forced : Нет
Текст
Идентификатор : 4
Формат : UTF-8
Идентификатор кодека : S_TEXT/UTF8
Идентификатор кодека/Информация : UTF-8 Plain Text
Продолжительность : 1 ч. 39 м.
Битрейт : 32 бит/сек
Count of elements : 1196
Размер потока : 23,4 Кбайт (0%)
Заголовок : Original - SDH
Язык : English
Default : Да
Forced : Нет
Меню
00:00:00.000 : en:Studio Logo
00:00:48.000 : en:Buck is king
00:02:43.000 : en:Buck's behavior
00:04:12.000 : en:A turkey is ready
00:05:17.000 : en:Buck spends on the porch
00:07:14.000 : en:Locked in that box
00:09:55.000 : en:Skagway, Alaska
00:13:42.000 : en:Perrault finds Buck
00:14:52.000 : en:Buck joins the team
00:17:53.000 : en:Sleep in snow
00:20:31.000 : en:Doing the work of a sled dog
00:26:04.000 : en:Spitz is not pleased
00:32:21.000 : en:Who leads the team
00:36:23.000 : en:Buck finds a way
00:38:42.000 : en:What they carry
00:41:36.000 : en:John remembers Buck
00:43:27.000 : en:Buck loses his master
00:45:53.000 : en:New owner
00:48:59.000 : en:John heads to Buck
00:53:00.000 : en:John is at bar
00:57:41.000 : en:John talks about his son
01:02:07.000 : en:Adventure with Buck
01:05:09.000 : en:Hal comes to John's place
01:13:08.000 : en:Buck finds friends
01:17:12.000 : en:Buck still comes back to John
01:20:22.000 : en:John is leaving
01:23:36.000 : en:Buck comes back
01:29:15.000 : en:Buck becomes his own master
01:32:16.000 : en:End Credits
--

Скриншоты

-- ---- -- --Релиз от: Nikolai.Baranov & PIRATIYA . Поблагодарить:
ЯД: 410017546713876
-- -- -- --Время раздачи : 24/7--
Скачать

Скачать торрент! Зов предков / The Call of the Wild (Крис Сандерс) [ 2020, Драма, приключения, семейный,WEB-DLRip - HEVC 1080p] [HDrezka+ENG]+[Subs ENG]

Как скачивать? · Что такое торрент? · Рейтинг и ограничения

Сайт не распространяет и не хранит электронные версии произведений, а лишь предоставляет доступ к создаваемому пользователями каталогу ссылок на торрент-файлы, которые содержат только списки хеш-сумм

 
Показать сообщения:    
Ответить на тему

Текущее время: Сегодня 06:03

Часовой пояс: GMT + 4



Вы не можете начинать темы
Вы не можете отвечать на сообщения
Вы не можете редактировать свои сообщения
Вы не можете удалять свои сообщения
Вы не можете голосовать в опросах
Вы не можете прикреплять файлы к сообщениям
Вы не можете скачивать файлы