Нагин: Женщина-змея / Hisss (Дженнифер Чэмберс Линч / Jennifer Chambers Lynch) [2010, США,Индия, Ужасы Фэнтези Триллер, DVDRip] DVO

Ответить на тему
 
Автор Сообщение

user ®

Стаж: 13 лет

Сообщений: 15071

Пост Пост: #1 от 21-Фев-2011 22:33

[Цитировать]

Нагин: Женщина-змея / Hisss
Страна: США,Индия
Жанр: Ужасы Фэнтези Триллер
Год выпуска: 2010
Продолжительность: 1:33:17
Перевод: Любительский (двухголосый закадровый)
Cубтитры: нет
Режиссер: Дженнифер Чэмберс Линч / Jennifer Chambers Lynch
В ролях: Ирфан Кхан, Малика Шерават, Дивья Датта, Джефф Дусетте
Описание: Американец путешествует по Индии в поисках источника древних легенд о людях-змеях, называемых нагинами. Ему удается поймать в джунглях змею-самца, над которым он намеревается ставить эксперименты, чтобы добыть некий мифический экстракт. А чтобы вернуть любовника, в наш мир приходит женщина-змея… Она несет месть всем, кто встает на пути их воссоединения и тем, кто удерживает ее партнера.
Доп. информация: Кинопоиск:4,92/10(68)
IMDb:3,70/10(276)
Сэмпл: http://multi-up.com/430292
Качество видео: DVDRip
Формат видео: AVI
Видео: XviD 720x304 (2.37:1) 23.976 fps 2049кбит/сек
Аудио: AC3 Dolby Digital 48 kHz 3/2 (L,C,R,l,r) + LFE ch 448 кбит/сек

MediaInfo

Video: 720x304 (2.37:1), 23.976 fps, XviD build 47 ~737 kbps avg, 0.14 bit/pixel
Audio: 48 kHz, AC3 Dolby Digital, 3/2 (L,C,R,l,r) + LFE ch, ~448 kbps
Формат : AVI
Формат/Информация : Audio Video Interleave
Размер файла : 1,37 Гбайт
Продолжительность : 1 ч. 33 м.
Общий поток : 2099 Кбит/сек
Программа кодирования : VirtualDubMod 1.5.10.2 (build 2540/release)
Библиотека кодирования : VirtualDubMod build 2540/release
Видео
Идентификатор : 0
Формат : MPEG-4 Visual
Профиль формата : Advanced Simple@L5
Параметр BVOP формата : 3
Параметр матрицы формата : Default (H.263)
Идентификатор кодека : XVID
Идентификатор кодека/Подсказка : XviD
Продолжительность : 1 ч. 33 м.
Битрейт : 1642 Кбит/сек
Ширина : 720 пикс.
Высота : 304 пикс.
Соотношение сторон : 2,35:1
Частота кадров : 23,976 кадр/сек
Цветовое пространство : YUV
Подвыборка цветности : 4:2:0
Битовая глубина : 8 бит
Тип развёртки : Прогрессивная
Метод сжатия : С потерями
Бит/(Пиксели*Кадры) : 0.313
Размер потока : 1,07 Гбайт (78%)
Библиотека кодирования : XviD 1.2.0.dev47 (UTC 2006-11-01)
Аудио
Идентификатор : 1
Формат : AC-3
Формат/Информация : Audio Coding 3
Расширение режима : CM (complete main)
Идентификатор кодека : 2000
Продолжительность : 1 ч. 33 м.
Вид битрейта : Постоянный
Битрейт : 448 Кбит/сек
Канал(ы) : 6 канала(ов)
Расположение каналов : Front: L C R, Side: L R, LFE
Частота : 48,0 КГц
Битовая глубина : 16 бит
Метод сжатия : С потерями
Размер потока : 299 Мбайт (21%)
Выравнивание : Разделение по промежуткам
Продолжительность промежутка : 42 мс. (1,00 видеокадр)
Время предзагрузки промежутка : 500 ms

Скриншот c названием фильма


Скачать

Скачать торрент! Нагин: Женщина-змея / Hisss (Дженнифер Чэмберс Линч / Jennifer Chambers Lynch) [2010, США,Индия, Ужасы Фэнтези Триллер, DVDRip] DVO

Как скачивать? · Что такое торрент? · Рейтинг и ограничения

Сайт не распространяет и не хранит электронные версии произведений, а лишь предоставляет доступ к создаваемому пользователями каталогу ссылок на торрент-файлы, которые содержат только списки хеш-сумм

[Профиль] [ЛС]
Показать сообщения:    
Ответить на тему

Текущее время: Сегодня 17:41

Часовой пояс: GMT + 4



Вы не можете начинать темы
Вы не можете отвечать на сообщения
Вы не можете редактировать свои сообщения
Вы не можете удалять свои сообщения
Вы не можете голосовать в опросах
Вы не можете прикреплять файлы к сообщениям
Вы не можете скачивать файлы