Ведьмак/ The Witcher (Сезон 1 , Серия 1-8 из 8) (Алик Сахаров, Шарлотта Брандстром) [2019, Фэнтези, боевик, драма, приключения,WEB-DLRip 1080p] [LostFilm+Пифагор+NewStudio+Кубик в Кубе+Jaskier+HDRezka+TVShows+ENG]+[Subs Rus , ENG]

Ответить на тему
 
Автор Сообщение

Nikolai.Baranov ®

Пост Пост: #1 от 24-Фев-2020 18:19

[Цитировать]

-- --Ведьмак/ The Witcher Сезон 1 , Серия 1-8 из 8 - Полный Комплект-- --Год выпуска: 2019
Выпущено: Польша, США, NetFlix, Pioneer Stilking Films, Platige Image, Sean Daniel Company
Жанр: Фэнтези, боевик, драма, приключения
Продолжительность: 01:00:00
Сезон: 1
Серия:1-8
Количество серий в сезоне:8--Озвучка #1: Профессиональный многоголосый - LostFilm - Русский
Озвучка #2: профессиональный (дублированный) - Пифагор - Русский
Озвучка #3: Профессиональный многоголосый - NewStudio - Русский
Озвучка #4: Профессиональный многоголосый - TVShows - Русский
Озвучка #5: Профессиональный многоголосый - Jaskier - Русский
Озвучка #6: Профессиональный многоголосый - HDRezka Studio - Русский
Озвучка #7: Профессиональный многоголосый - Кубик в Кубе -1-3 серии - Русский
Озвучка #8: Профессиональный многоголосый -Английский - Оригинал
Субтитры: Русские (Forced, Full), английские SDH
-- Релиз Без Рекламы - Ненормативная лексика NewStudio --MDB 8 . 9 --Режиссеры:
Алик Сахаров, Шарлотта Брандстром, Алекс Гарсиа Лопес--В ролях: : Генри Кавилл, Фрейя Аллан, Джои Бэти, МайАнна Бёринг, Том Кэнтон, Аня Чалотра, Имон Фэррен, Бьерн Хлинур Харальдссон, Адам Леви, Джоди Мэй, Ларс Миккельсен, Мацей Мусял, Мими Дивени, Ройс Пирресон, Уилсон Раджу-Пухальте, Анна Шаффер, Амит Шах, Наташа Кулзач, Имоджен Дэйнес-- Все события в этом телесериале происходят в придуманном мире, в котором обитают всевозможные чудовищные существа, а также очень опасные монстры. Наш главный герой -- ведьмак, охотившийся за кровожадными оборотнями, представляющих угрозу для жизни людей. В раннем детстве он пережил мутацию, в результате чего получил лучшие боевые навыки: повышенную силу, быструю реакцию. Основной его задачей было за оплату уничтожать кровожадных обитателей. Но другой раз он шел наперекор своим нанимателям. Геральт оставлял в живых драконов, которых почти не осталось на земле; монстров обладающих высоким интеллектом и вообще старался не вмешиваться в политические интриги чародеев и королей. Но однажды он все таки был вовлечен в противостояния между королевствами, чтобы защитить совсем юную княжну, на которой были сосредоточены интересы больших людей. По предсказанию только ее будущий потомок мог решить судьбу всего человечества. Цири тоже хорошо владела мечом и обладала магией, вот им двоим и пришлось преодолевать все тяжелые испытания, встречающиеся на их пути.-- --Качество :WEB-DLRip - HEVC 10bit - 1080p
Формат: MKV
Видео кодек: H265
Видео: 4604Кбит/сек,,1920х960(2.000),в 24.000кадр/сек,HEVC (Main10@L5.2@Main)--Аудио Кодек:AC3
Аудио #1:MVO LostFilm @DD5.1 AC3, 640 Kbps, 48.0 KHz, 6 ch- Lostfilm -Русский
Аудио #2:DUB Пифагор @DD5.1 AC3, 640 Kbps, 48.0 KHz, 6 chh-Пифагор -Русский
Аудио #3:MVO NewStudio @DD5.1 AC3, 640 Kbps, 48.0 KHz, 6 ch- NewStudio -Русский
Аудио #4:MVO MVO TVShows @DD5.1 AC3, 640 Kbps, 48.0 KHz, 6 ch- TVShows -Русский
Аудио #5:MVO Кубик в Кубе @DD5.1 AC3, 640 Kbps, 48.0 KHz, 6 ch- Кубик в Кубе -Русский
Аудио #6:MVO MVO Jaskier @DD5.1 AC3, 640 Kbps, 48.0 KHz, 6 ch- Jaskier -Русский
Аудио #7:MVO HDRezka Studio @DD5.1 AC3, 640 Kbps, 48.0 KHz, 6 ch- HDRezka Studio -Русский
Аудио #8: Original@DD5.1 AC3 ,640 Kbps, 48.0 KHz, 6 ch- English - Оригинал-- --

Доп. информация:

Звуковая дорожка сделана путем наложения чистого голоса озвучивателей на центральный канал оригинальной дорожки. Качество идентично звуковой дорожке.
--

Список эпизодов сезона


1 сезон 1 серия - Начало конца - The End's Beginning
1 сезон 2 серия - Четыре марки - Four Marks
1 сезон 3 серия - Предательская луна - Betrayer Moon
1 сезон 4 серия - Приемы, бастарды и погребения - Of Banquets, Bastards and Burials
1 сезон 5 серия - Желания в бутылке - Bottled Appetites
1 сезон 6 серия - Редкий вид - Rare Species
1 сезон 7 серия - До падения - Before a Fall
1 сезон 8 серия - Нечто большее - Much More
--

MediaInfo сезона

Общее
Уникальный идентификатор : 238855325710123200835595840781642158658 (0xB3B1DCC74E04A6369AEFA15AA7A4D242)
Полное имя : D:\PIRATIYA\Ведьмак - The Witcher\The_Witcher_2019_S01_HEVC- 10Bit_Н265_DD5.1_N.B_HD_1080_7xRus_Eng\The_Witcher_2019_S01E01_HEVC_DD5.1_N.B_HD_1080_7xRus_Eng.mkv
Формат : Matroska
Версия формата : Version 4
Размер файла : 4,14 Гбайт
Продолжительность : 1 ч. 1 м.
Общий поток : 9702 Кбит/сек
Название фильма : The Witcher 2019 S01E01 @ Nikolai.Baranov & PIRATIYA
Дата кодирования : UTC 2020-02-18 08:09:49
Программа кодирования : mkvmerge v43.0.0 ('The Quartermaster') 64-bit
Библиотека кодирования : libebml v1.3.10 + libmatroska v1.5.2
Видео
Идентификатор : 1
Формат : HEVC
Формат/Информация : High Efficiency Video Coding
Профиль формата : Main 10@L5.2@Main
Идентификатор кодека : V_MPEGH/ISO/HEVC
Продолжительность : 1 ч. 1 м.
Битрейт : 4604 Кбит/сек
Ширина : 1920 пикселей
Высота : 960 пикселей
Соотношение сторон : 2,000
Режим частоты кадров : Постоянный
Частота кадров : 24,000 кадра/сек
Цветовое пространство : YUV
Субдискретизация насыщенности : 4:2:0
Битовая глубина : 10 бит
Бит/(Пиксели*Кадры) : 0.104
Размер потока : 1,96 Гбайт (47%)
Заголовок : The_Witcher_2019_S01E01_HEVC_DD5.1_N.B_HD_1080_7xRus_Eng
Язык : Russian
Default : Да
Forced : Нет
Цветовой диапазон : Full
Основные цвета : BT.709
Характеристики трансфера : BT.709
Коэффициенты матрицы : BT.709
Аудио #1
Идентификатор : 4
Формат : AC-3
Формат/Информация : Audio Coding 3
Коммерческое название : Dolby Digital
Идентификатор кодека : A_AC3
Продолжительность : 1 ч. 1 м.
Вид битрейта : Постоянный
Битрейт : 640 Кбит/сек
Каналы : 6 каналов
ChannelLayout : L R C LFE Ls Rs
Частота : 48,0 КГц
Частота кадров : 31,250 кадров/сек (1536 SPF)
Метод сжатия : С потерями
Размер потока : 280 Мбайт (7%)
Заголовок : DUB Пифагор @DD5.1 AC3, 640 Kbps, 48.0 KHz, 6 ch
Язык : Russian
ServiceKind/String : Complete Main
Default : Да
Forced : Нет
Аудио #2
Идентификатор : 5
Формат : AC-3
Формат/Информация : Audio Coding 3
Коммерческое название : Dolby Digital
Идентификатор кодека : A_AC3
Продолжительность : 1 ч. 1 м.
Вид битрейта : Постоянный
Битрейт : 640 Кбит/сек
Каналы : 6 каналов
ChannelLayout : L R C LFE Ls Rs
Частота : 48,0 КГц
Частота кадров : 31,250 кадров/сек (1536 SPF)
Метод сжатия : С потерями
Размер потока : 280 Мбайт (7%)
Заголовок : MVO Кубик в Кубе @DD5.1 AC3, 640 Kbps, 48.0 KHz, 6 ch
Язык : Russian
ServiceKind/String : Complete Main
Default : Нет
Forced : Нет
Аудио #3
Идентификатор : 6
Формат : AC-3
Формат/Информация : Audio Coding 3
Коммерческое название : Dolby Digital
Идентификатор кодека : A_AC3
Продолжительность : 1 ч. 1 м.
Вид битрейта : Постоянный
Битрейт : 640 Кбит/сек
Каналы : 6 каналов
ChannelLayout : L R C LFE Ls Rs
Частота : 48,0 КГц
Частота кадров : 31,250 кадров/сек (1536 SPF)
Метод сжатия : С потерями
Размер потока : 280 Мбайт (7%)
Заголовок : MVO LostFilm @DD5.1 AC3, 640 Kbps, 48.0 KHz, 6 ch
Язык : Russian
ServiceKind/String : Complete Main
Default : Нет
Forced : Нет
Аудио #4
Идентификатор : 7
Формат : AC-3
Формат/Информация : Audio Coding 3
Коммерческое название : Dolby Digital
Идентификатор кодека : A_AC3
Продолжительность : 1 ч. 1 м.
Вид битрейта : Постоянный
Битрейт : 640 Кбит/сек
Каналы : 6 каналов
ChannelLayout : L R C LFE Ls Rs
Частота : 48,0 КГц
Частота кадров : 31,250 кадров/сек (1536 SPF)
Метод сжатия : С потерями
Размер потока : 280 Мбайт (7%)
Заголовок : MVO TVShows @DD5.1 AC3, 640 Kbps, 48.0 KHz, 6 ch
Язык : Russian
ServiceKind/String : Complete Main
Default : Нет
Forced : Нет
Аудио #5
Идентификатор : 8
Формат : AC-3
Формат/Информация : Audio Coding 3
Коммерческое название : Dolby Digital
Идентификатор кодека : A_AC3
Продолжительность : 1 ч. 0 м.
Вид битрейта : Постоянный
Битрейт : 640 Кбит/сек
Каналы : 6 каналов
ChannelLayout : L R C LFE Ls Rs
Частота : 48,0 КГц
Частота кадров : 31,250 кадров/сек (1536 SPF)
Метод сжатия : С потерями
Размер потока : 276 Мбайт (7%)
Заголовок : MVO NewStudio @DD5.1 AC3, 640 Kbps, 48.0 KHz, 6 ch
Язык : Russian
ServiceKind/String : Complete Main
Default : Нет
Forced : Нет
Аудио #6
Идентификатор : 9
Формат : AC-3
Формат/Информация : Audio Coding 3
Коммерческое название : Dolby Digital
Идентификатор кодека : A_AC3
Продолжительность : 1 ч. 0 м.
Вид битрейта : Постоянный
Битрейт : 640 Кбит/сек
Каналы : 6 каналов
ChannelLayout : L R C LFE Ls Rs
Частота : 48,0 КГц
Частота кадров : 31,250 кадров/сек (1536 SPF)
Метод сжатия : С потерями
Размер потока : 276 Мбайт (7%)
Заголовок : MVO Jaskier @DD5.1 AC3, 640 Kbps, 48.0 KHz, 6 ch
Язык : Russian
ServiceKind/String : Complete Main
Default : Нет
Forced : Нет
Аудио #7
Идентификатор : 10
Формат : AC-3
Формат/Информация : Audio Coding 3
Коммерческое название : Dolby Digital
Идентификатор кодека : A_AC3
Продолжительность : 1 ч. 0 м.
Вид битрейта : Постоянный
Битрейт : 640 Кбит/сек
Каналы : 6 каналов
ChannelLayout : L R C LFE Ls Rs
Частота : 48,0 КГц
Частота кадров : 31,250 кадров/сек (1536 SPF)
Метод сжатия : С потерями
Размер потока : 276 Мбайт (7%)
Заголовок : MVO HDRezka Studio @DD5.1 AC3, 640 Kbps, 48.0 KHz, 6 ch
Язык : Russian
ServiceKind/String : Complete Main
Default : Нет
Forced : Нет
Аудио #8
Идентификатор : 11
Формат : AC-3
Формат/Информация : Audio Coding 3
Коммерческое название : Dolby Digital
Идентификатор кодека : A_AC3
Продолжительность : 1 ч. 1 м.
Вид битрейта : Постоянный
Битрейт : 640 Кбит/сек
Каналы : 6 каналов
ChannelLayout : L R C LFE Ls Rs
Частота : 48,0 КГц
Частота кадров : 31,250 кадров/сек (1536 SPF)
Метод сжатия : С потерями
Размер потока : 280 Мбайт (7%)
Заголовок : Original@DD5.1 AC3 ,640 Kbps, 48.0 KHz, 6 ch
Язык : English
ServiceKind/String : Complete Main
Default : Нет
Forced : Нет
Текст #1
Идентификатор : 2
Формат : UTF-8
Идентификатор кодека : S_TEXT/UTF8
Идентификатор кодека/Информация : UTF-8 Plain Text
Продолжительность : 2 м. 54 с.
Битрейт : 3 бит/сек
ElementCount : 2
Размер потока : 86,0 байт (0%)
Заголовок : Начало конца-Russian-Forced
Язык : Russian
Default : Да
Forced : Нет
Текст #2
Идентификатор : 3
Формат : UTF-8
Идентификатор кодека : S_TEXT/UTF8
Идентификатор кодека/Информация : UTF-8 Plain Text
Продолжительность : 58 м. 35 с.
Битрейт : 65 бит/сек
ElementCount : 623
Размер потока : 28,1 Кбайт (0%)
Заголовок : Начало конца-Russian
Язык : Russian
Default : Нет
Forced : Нет
Текст #3
Идентификатор : 12
Формат : UTF-8
Идентификатор кодека : S_TEXT/UTF8
Идентификатор кодека/Информация : UTF-8 Plain Text
Продолжительность : 58 м. 33 с.
Битрейт : 46 бит/сек
ElementCount : 748
Размер потока : 20,0 Кбайт (0%)
Заголовок : The End's Beginning-Original - SDH
Язык : English
Default : Нет
Forced : Нет
Текст #4
Идентификатор : 13
Формат : UTF-8
Идентификатор кодека : S_TEXT/UTF8
Идентификатор кодека/Информация : UTF-8 Plain Text
Продолжительность : 56 м. 37 с.
Битрейт : 43 бит/сек
ElementCount : 643
Размер потока : 18,0 Кбайт (0%)
Заголовок : The End's Beginning-Original
Язык : English
Default : Нет
Forced : Нет
Меню
00:00:00.000 : ru:Глава 01 / ru:Глава 01 / ru:Глава 01 / ru:Глава 01 / ru:Глава 01 / ru:Глава 01 / ru:Глава 01 / ru:Глава 01 / ru:Глава 01 / ru:Глава 01 / ru:Глава 01 / ru:Глава 01 / ru:Глава 01
-- -- --

Как закачать отдельный файл

1. Открыть торрент
2. Снять галки с тех файлов торрента, которые мы не хотим закачивать. Оставляем только на нужных нам файлах (файле).
3. Нажать О.К.
В клиенте utorrent
Инструкция
1) Открыть торрент

2) Снять галки с тех файлов торрента, которые мы не хотим закачивать:
* либо вручную, снимая с каждого файла галку( скрин №1)
* либо, нажав кнопку "Снять метки (Select None)", сняв сразу со всех файлов(скрин №2)
№1

№2

Оставляем только на нужных нам файлах (файле).

3)Нажать О.К
-- -- --Релиз от: Nikolai.Baranov & PIRATIYA . Поблагодарить:
ЯД: 410017546713876
-- -- -- --Время раздачи : 24/7--
Скачать

Скачать торрент! Ведьмак/ The Witcher (Сезон 1 , Серия 1-8 из 8) (Алик Сахаров, Шарлотта Брандстром) [2019, Фэнтези, боевик, драма, приключения,WEB-DLRip 1080p] [LostFilm+Пифагор+NewStudio+Кубик в Кубе+Jaskier+HDRezka+TVShows+ENG]+[Subs Rus , ENG]

Как скачивать? · Что такое торрент? · Рейтинг и ограничения

Сайт не распространяет и не хранит электронные версии произведений, а лишь предоставляет доступ к создаваемому пользователями каталогу ссылок на торрент-файлы, которые содержат только списки хеш-сумм

 
Показать сообщения:    
Ответить на тему

Текущее время: Сегодня 13:57

Часовой пояс: GMT + 4



Вы не можете начинать темы
Вы не можете отвечать на сообщения
Вы не можете редактировать свои сообщения
Вы не можете удалять свои сообщения
Вы не можете голосовать в опросах
Вы не можете прикреплять файлы к сообщениям
Вы не можете скачивать файлы