Ирландец/ The Irishman (Мартин Скорсезе) [2019, Драма, криминал, биография,WEB-DLRip 1080p] [Кубик в Кубе+Пифагор+NewStudio+Jaskier+Сербин+ENG]+[Subs Rus , ENG]

Ответить на тему
 
Автор Сообщение

Nikolai.Baranov ®

Пол:

Стаж: 2 года 11 месяцев

Сообщений: 178

Откуда: Красногорск

Пост Пост: #1 от 31-Дек-2019 18:33

[Цитировать]

--Ирландец/ The Irishman-- --Год выпуска: 2019
Выпущено: США , Fabrica de Cine, STX Entertainment, Sikelia Productions, Tribeca Productions
Жанр: Драма, криминал, биография
Продолжительность: 03:29:27--Озвучка #1: Профессиональный многоголосый - Кубик в Кубе - Русский
Озвучка #2: профессиональный (дублированный) - Пифагор - Русский
Озвучка #3: Профессиональный многоголосый - NewStudio - Русский
Озвучка #4: Профессиональный многоголосый - Jaskier - Русский
Озвучка #5: Авторский (одноголосый закадровый- Юрий Сербин - Русский
Озвучка #6: Профессиональный многоголосый -Английский - Оригинал
Субтитры: Русские (Forced, Full), английские SDH
--Релиз Релиз Без Рекламы - Ненормативная лексика --MDB 8.1 --Режиссеры:
Мартин Скорсезе--В ролях: : Роберт Де Ниро, Анна Пакуин, Аль Пачино, Джо Пеши, Алекса Палладино, Джесси Племонс, Харви Кейтель, Бобби Каннавейл, Стивен Грэм, Джек Хьюстон-- Фрэнк Ширан, носивший кличку Ирландец был, на первый взгляд, обычным американским обывателем. Примерный семьянин с женой и четырьмя детьми, бывший ветеран войны, любитель умеренной выпивки. Но под внешней маской скрывался человек, родившийся в Ирландии в семье с суровым отцом, помешанным на боксе. Человек, который провел на войне столько дней, что разучился нормально спать и нормально жить. Его тяга к спиртному была прямым следствием посттравматического синдрома, от которого бывшего солдата не могли спасти никакие семейные радости. Именно этот человек на старости лет сделает признание в том, что убил свыше 30 важных представителей мафии.-- --Качество :WEB-DLRip - HEVC 10bit - 1080p
Формат: MKV
Видео кодек: H265
Видео: 4080Кбит/сек,1920х1080(16.9),в 24.000кадр/сек, HEVC (Main10@L4@Main)--Аудио Кодек:AC3
Аудио #1:MVO Кубик в Кубе @DD5.1 E-AC3, 768 Kbps, 48.0 KHz, 6 ch- Кубик в Кубе -Русский
Аудио #2:DUB Пифагор @DD5.1 E-AC3, 768 Kbps, 48.0 KHz, 6 chh-Пифагор -Русский
Аудио #3:MVO NewStudio @DD5.1 AC3, 640 Kbps, 48.0 KHz, 6 ch- NewStudio -Русский
Аудио #4:MVO MVO Jaskier @DD5.1 AC3, 640 Kbps, 48.0 KHz, 6 ch- Jaskier -Русский
Аудио #5:AVO Юрий Сербин @DD5.1 AC3, 640 Kbps, 48.0 KHz, 6 ch- Юрий Сербин -Русский
Аудио #6: Original@DD5.1 E-AC3 ,768 Kbps, 48.0 KHz, 6 ch- English - Оригинал--

Доп. информация:

Звуковая дорожка сделана путем наложения чистого голоса озвучивателей на центральный канал оригинальной дорожки. Качество идентично звуковой дорожке.
--

MediaInfo

Общее
Уникальный идентификатор : 311371734550863467638309774665001895728 (0xEA4003C60C69F983E5AB87989BF28730)
Полное имя : F:\RussianPatriot\Ирландец - The Irishman\The_Irishman_2019_HEVC- 10Bit_Н265_DD5.1_N.B_HD_1080_5xRus_Eng\The_Irishman_2019_HEVC- 10Bit_Н265_DD5.1_N.B_HD_1080_5xRus_Eng.mkv
Формат : Matroska
Версия формата : Version 4
Размер файла : 12,0 Гбайт
Продолжительность : 3 ч. 29 м.
Общий поток : 8176 Кбит/сек
Название фильма : The Irishman 2019 @ Nikolai.Baranov & PIRATIYA
Дата кодирования : UTC 2019-12-31 11:16:17
Программа кодирования : mkvmerge v41.0.0 ('Smarra') 64-bit
Библиотека кодирования : libebml v1.3.9 + libmatroska v1.5.2
Видео
Идентификатор : 1
Формат : HEVC
Формат/Информация : High Efficiency Video Coding
Профиль формата : Main 10@L4@Main
Идентификатор кодека : V_MPEGH/ISO/HEVC
Продолжительность : 3 ч. 29 м.
Битрейт : 4080 Кбит/сек
Ширина : 1920 пикселей
Высота : 1080 пикселей
Соотношение сторон : 16:9
Режим частоты кадров : Постоянный
Частота кадров : 24,000 кадра/сек
Цветовое пространство : YUV
Субдискретизация насыщенности : 4:2:0
Битовая глубина : 10 бит
Бит/(Пиксели*Кадры) : 0.082
Размер потока : 5,97 Гбайт (50%)
Заголовок : The_Irishman_2019_HEVC- 10Bit_Н265_DD5.1_N.B_HD_1080_5xRus_Eng
Язык : Russian
Default : Нет
Forced : Нет
Аудио #1
Идентификатор : 4
Формат : AC-3
Формат/Информация : Audio Coding 3
Коммерческое название : Dolby Digital
Идентификатор кодека : A_AC3
Продолжительность : 3 ч. 29 м.
Вид битрейта : Постоянный
Битрейт : 640 Кбит/сек
Каналы : 6 каналов
ChannelLayout : L R C LFE Ls Rs
Частота : 48,0 КГц
Частота кадров : 31,250 кадров/сек (1536 SPF)
Метод сжатия : С потерями
Размер потока : 958 Мбайт (8%)
Заголовок : DUB Пифагор @DD5.1 AC3, 640 Kbps, 48.0 KHz, 6 ch
Язык : Russian
ServiceKind/String : Complete Main
Default : Да
Forced : Нет
Аудио #2
Идентификатор : 5
Формат : E-AC-3
Формат/Информация : Enhanced AC-3
Коммерческое название : Dolby Digital Plus
Идентификатор кодека : A_EAC3
Продолжительность : 3 ч. 28 м.
Вид битрейта : Постоянный
Битрейт : 768 Кбит/сек
Каналы : 6 каналов
ChannelLayout : L R C LFE Ls Rs
Частота : 48,0 КГц
Частота кадров : 31,250 кадров/сек (1536 SPF)
Метод сжатия : С потерями
Размер потока : 1,12 Гбайт (9%)
Заголовок : MVO Кубик в Кубе @DD5.1 E-AC3, 768 Kbps, 48.0 KHz, 6 ch
Язык : Russian
ServiceKind/String : Complete Main
Default : Нет
Forced : Нет
Аудио #3
Идентификатор : 6
Формат : AC-3
Формат/Информация : Audio Coding 3
Коммерческое название : Dolby Digital
Идентификатор кодека : A_AC3
Продолжительность : 3 ч. 29 м.
Вид битрейта : Постоянный
Битрейт : 640 Кбит/сек
Каналы : 6 каналов
ChannelLayout : L R C LFE Ls Rs
Частота : 48,0 КГц
Частота кадров : 31,250 кадров/сек (1536 SPF)
Метод сжатия : С потерями
Размер потока : 958 Мбайт (8%)
Заголовок : AVO Юрий Сербин @DD5.1 AC3, 640 Kbps, 48.0 KHz, 6 ch
Язык : Russian
ServiceKind/String : Complete Main
Default : Нет
Forced : Нет
Аудио #4
Идентификатор : 7
Формат : AC-3
Формат/Информация : Audio Coding 3
Коммерческое название : Dolby Digital
Идентификатор кодека : A_AC3
Продолжительность : 3 ч. 29 м.
Вид битрейта : Постоянный
Битрейт : 640 Кбит/сек
Каналы : 6 каналов
ChannelLayout : L R C LFE Ls Rs
Частота : 48,0 КГц
Частота кадров : 31,250 кадров/сек (1536 SPF)
Метод сжатия : С потерями
Размер потока : 958 Мбайт (8%)
Заголовок : MVO NewStudio @DD5.1 AC3, 640 Kbps, 48.0 KHz, 6 ch
Язык : Russian
ServiceKind/String : Complete Main
Default : Нет
Forced : Нет
Аудио #5
Идентификатор : 8
Формат : AC-3
Формат/Информация : Audio Coding 3
Коммерческое название : Dolby Digital
Идентификатор кодека : A_AC3
Продолжительность : 3 ч. 29 м.
Вид битрейта : Постоянный
Битрейт : 640 Кбит/сек
Каналы : 6 каналов
ChannelLayout : L R C LFE Ls Rs
Частота : 48,0 КГц
Частота кадров : 31,250 кадров/сек (1536 SPF)
Метод сжатия : С потерями
Размер потока : 958 Мбайт (8%)
Заголовок : MVO Jaskier @DD5.1 AC3, 640 Kbps, 48.0 KHz, 6 ch
Язык : Russian
ServiceKind/String : Complete Main
Default : Нет
Forced : Нет
Аудио #6
Идентификатор : 9
Формат : E-AC-3 JOC
Формат/Информация : Enhanced AC-3 with Joint Object Coding
Коммерческое название : Dolby Digital Plus with Dolby Atmos
Идентификатор кодека : A_EAC3
Продолжительность : 3 ч. 29 м.
Вид битрейта : Постоянный
Битрейт : 768 Кбит/сек
Каналы : 6 каналов
ChannelLayout : L R C LFE Ls Rs
Частота : 48,0 КГц
Частота кадров : 31,250 кадров/сек (1536 SPF)
Метод сжатия : С потерями
Задержка видео : 7 мс.
Размер потока : 1,12 Гбайт (9%)
Заголовок : Original@DD5.1 E-AC3 ,768 Kbps, 48.0 KHz, 6 ch
Язык : English
ServiceKind/String : Complete Main
Default : Нет
Forced : Нет
ComplexityIndex : 16
NumberOfDynamicObjects : 15
BedChannelCount/String : 1 канал
BedChannelConfiguration : LFE
Текст #1
Идентификатор : 2
Формат : UTF-8
Идентификатор кодека : S_TEXT/UTF8
Идентификатор кодека/Информация : UTF-8 Plain Text
Продолжительность : 3 ч. 6 м.
Битрейт : 11 бит/сек
ElementCount : 214
Размер потока : 15,8 Кбайт (0%)
Заголовок : Russian-Forced
Язык : Russian
Default : Да
Forced : Нет
Текст #2
Идентификатор : 3
Формат : UTF-8
Идентификатор кодека : S_TEXT/UTF8
Идентификатор кодека/Информация : UTF-8 Plain Text
Продолжительность : 3 ч. 18 м.
Битрейт : 102 бит/сек
ElementCount : 2972
Размер потока : 149 Кбайт (0%)
Заголовок : Russian
Язык : Russian
Default : Нет
Forced : Нет
Текст #3
Идентификатор : 10
Формат : UTF-8
Идентификатор кодека : S_TEXT/UTF8
Идентификатор кодека/Информация : UTF-8 Plain Text
Продолжительность : 42 с. 292 мс.
Битрейт : 57 бит/сек
ElementCount : 15
Размер потока : 304 байт (0%)
Заголовок : Eng-Forced
Язык : English
Default : Нет
Forced : Нет
Текст #4
Идентификатор : 11
Формат : UTF-8
Идентификатор кодека : S_TEXT/UTF8
Идентификатор кодека/Информация : UTF-8 Plain Text
Продолжительность : 3 ч. 20 м.
Битрейт : 83 бит/сек
ElementCount : 3813
Размер потока : 123 Кбайт (0%)
Заголовок : Original - SDH
Язык : English
Default : Нет
Forced : Нет
Текст #5
Идентификатор : 12
Формат : UTF-8
Идентификатор кодека : S_TEXT/UTF8
Идентификатор кодека/Информация : UTF-8 Plain Text
Продолжительность : 3 ч. 16 м.
Битрейт : 69 бит/сек
ElementCount : 2925
Размер потока : 101 Кбайт (0%)
Заголовок : Original
Язык : English
Default : Нет
Forced : Нет
Меню
00:00:00.000 : ru:Chapter 01 / ru:Chapter 01 / ru:Chapter 01 / ru:Chapter 01 / ru:Chapter 01 / ru:Chapter 01 / ru:Chapter 01 / ru:Chapter 01 / ru:Chapter 01 / ru:Chapter 01 / ru:Chapter 01 / ru:Chapter 01
--

Скриншоты

-- -- -- --Релиз от: Nikolai.Baranov & PIRATIYA . Поблагодарить:
ЯД: 410017546713876
-- -- -- --Время раздачи : 24/7--
Скачать

Скачать торрент! Ирландец/ The Irishman (Мартин Скорсезе) [2019, Драма, криминал, биография,WEB-DLRip 1080p] [Кубик в Кубе+Пифагор+NewStudio+Jaskier+Сербин+ENG]+[Subs Rus , ENG]

Как скачивать? · Что такое торрент? · Рейтинг и ограничения

Сайт не распространяет и не хранит электронные версии произведений, а лишь предоставляет доступ к создаваемому пользователями каталогу ссылок на торрент-файлы, которые содержат только списки хеш-сумм

загрузка...

_________________

Легко быть оптимистом, когда судьба не валит с ног тяжелыми ударами, а лишь иногда легонько шлепает по заднице.
[Профиль] [ЛС]
Показать сообщения:    
Ответить на тему

Текущее время: Сегодня 21:11

Часовой пояс: GMT + 4



Вы не можете начинать темы
Вы не можете отвечать на сообщения
Вы не можете редактировать свои сообщения
Вы не можете удалять свои сообщения
Вы не можете голосовать в опросах
Вы не можете прикреплять файлы к сообщениям
Вы не можете скачивать файлы