Викинги/ Vikings (Сезон 6 , Серия 1-10 из 20) ( Киаран Доннелли, Йохан Ренк, Кен Джиротти) [2019, Исторический, драма, приключения, боевик, викинги,WEB-DLRip 1080p] [AlexFilm+ ENG]+[Subs ENG]

Ответить на тему
 
Автор Сообщение

Nikolai.Baranov ®

Пост Пост: #1 от 14-Дек-2019 19:42

[Цитировать]

-- --Викинги/ Vikings Сезон 6 , Серия 1-10 из 20-- --Год выпуска: 2019
Выпущено: Ирландия, Канада, Irish Film Board, Shaw Media, Take 5 Productions, World 2000 Entertainment
Жанр: Исторический, драма, приключения, боевик, викинги
Продолжительность: 00:45:00
Сезон: 6
Серия:1-10
Количество серий в сезоне:20--Озвучка #1: Профессиональный многоголосый - AlexFilm - Русский
Озвучка #2: Профессиональный многоголосый -Английский - Оригинал
Субтитры: Russian , English SDH
--Релиз Без Рекламы --MDB 8 . 6 --Режиссеры:
Киаран Доннелли, Йохан Ренк, Кен Джиротти--В ролях: : Данила Козловский, Клайв Стэнден, Гэбриел Бирн, Кэтрин Уинник, Джессалин Гилсиг, Джордж Благден, Густаф Скарсгард, Торбьорн Харр, Владимир Кулич, Донал Лог, Айван Кэй, Мод Хирст, Эрик Хиггинс, Герард Маккарти, Юко Ахола, Эми Де Брюн, Сэм Смит, Билл Гибсон, Кевин Мюррэй-- Исторический сериал «Викинги» от создателя «Тюдоров» и продюсера «Камелота» и «Борджиа» Майкла Херста расскажет о путешествиях легендарного героя скандинавских саг Рагнара Лодброка, а также о превращении молодого викинга в мудрого правителя, которого сравнивали с самим богом войны Одином. Проект канала History может похвастаться яркими персонажами, красивыми натурными съёмками и эпичными батальными сценами.-- --Качество :WEB-DLRip - HEVC 10bit - 1080p
Формат: MKV
Видео кодек: H265
Видео: 4053Кбит/сек,1920х1080(16.9),в 23.976кадр/сек, HEVC (Main10@L5.1@Main)--Аудио Кодек:AC3
Аудио #1:MVO AlexFilm @DD5.1 AC3, 640 Kbps, 48.0 KHz, 6 ch-AlexFilm -Русский
Аудио #2: Original@DD5.1 AC3 ,640 Kbps, 48.0 KHz, 6 ch- English - Оригинал--

Доп. информация:

Звуковая дорожка сделана путем наложения чистого голоса озвучивателей на центральный канал оригинальной дорожки. Качество идентично звуковой дорожке.
--

Список эпизодов сезона


6 сезон 1 серия - Новые начинания - New Beginnings
6 сезон 2 серия - Провидец - The Prophet
6 сезон 3 серия - Призраки, боги и бегущие псы - Ghosts, Gods and Running Dogs
6 сезон 4 серия - Все пленники - All the Prisoners
6 сезон 5 серия - Ключ - The Key
6 сезон 6 серия - Смерть и змей - Death and the Serpent
6 сезон 7 серия - Дева льдов - The Ice Maiden
6 сезон 8 серия - Вальхалла может подождать -Valhalla Can Wait
6 сезон 9 серия - Воскрешение - Resurrection
6 сезон 10 серия - Лучшие планы - The Best Laid Plans
--

MediaInfo сезона

Общее
Уникальный идентификатор : 103276356127824125075923233618752278525 (0x4DB24D7C86DA316F79B09763C0D98FFD)
Полное имя : D:\PIRATIYA\Викинги - Vikings\Vikings_2019_S06_HEVC- 10Bit_Н265_DD5.1_N.B_HD_1080_Rus_AlexFilm_Eng\Vikings_2019_S06E01_HEVC_Н265_DD5.1_N.B_HD_1080_Rus_AlexFilm_Eng.mkv
Формат : Matroska
Версия формата : Version 4
Размер файла : 1,70 Гбайт
Продолжительность : 45 м. 41 с.
Общий поток : 5335 Кбит/сек
Название фильма : Vikings 2019 S06E01 @ Nikolai.Baranov & PIRATIYA
Дата кодирования : UTC 2020-01-30 11:16:04
Программа кодирования : mkvmerge v43.0.0 ('The Quartermaster') 64-bit
Библиотека кодирования : libebml v1.3.10 + libmatroska v1.5.2
Видео
Идентификатор : 1
Формат : HEVC
Формат/Информация : High Efficiency Video Coding
Профиль формата : Main 10@L5.1@Main
Идентификатор кодека : V_MPEGH/ISO/HEVC
Продолжительность : 45 м. 41 с.
Битрейт : 4053 Кбит/сек
Ширина : 1920 пикселей
Высота : 1080 пикселей
Соотношение сторон : 16:9
Режим частоты кадров : Постоянный
Частота кадров : 23,976 (24000/1001) кадра/сек
Цветовое пространство : YUV
Субдискретизация насыщенности : 4:2:0
Битовая глубина : 10 бит
Бит/(Пиксели*Кадры) : 0.082
Размер потока : 1,29 Гбайт (76%)
Заголовок : Vikings_2019_S06E01_HEVC_Н265_DD5.1_N.B_HD_1080_Rus_AlexFilm_Eng
Язык : Russian
Default : Да
Forced : Нет
Цветовой диапазон : Full
Основные цвета : BT.709
Характеристики трансфера : BT.709
Коэффициенты матрицы : BT.709
Аудио #1
Идентификатор : 3
Формат : AC-3
Формат/Информация : Audio Coding 3
Коммерческое название : Dolby Digital
Идентификатор кодека : A_AC3
Продолжительность : 45 м. 41 с.
Вид битрейта : Постоянный
Битрейт : 640 Кбит/сек
Каналы : 6 каналов
ChannelLayout : L R C LFE Ls Rs
Частота : 48,0 КГц
Частота кадров : 31,250 кадров/сек (1536 SPF)
Метод сжатия : С потерями
Размер потока : 209 Мбайт (12%)
Заголовок : MVO AlexFilm @DD5.1 AC3, 640 Kbps, 48.0 KHz, 6 ch
Язык : Russian
ServiceKind/String : Complete Main
Default : Да
Forced : Нет
Аудио #2
Идентификатор : 4
Формат : AC-3
Формат/Информация : Audio Coding 3
Коммерческое название : Dolby Digital
Идентификатор кодека : A_AC3
Продолжительность : 45 м. 41 с.
Вид битрейта : Постоянный
Битрейт : 640 Кбит/сек
Каналы : 6 каналов
ChannelLayout : L R C LFE Ls Rs
Частота : 48,0 КГц
Частота кадров : 31,250 кадров/сек (1536 SPF)
Метод сжатия : С потерями
Размер потока : 209 Мбайт (12%)
Заголовок : Original@DD5.1 AC3 ,640 Kbps, 48.0 KHz, 6 ch
Язык : English
ServiceKind/String : Complete Main
Default : Нет
Forced : Нет
Текст #1
Идентификатор : 2
Формат : UTF-8
Идентификатор кодека : S_TEXT/UTF8
Идентификатор кодека/Информация : UTF-8 Plain Text
Продолжительность : 45 м. 0 с.
Битрейт : 71 бит/сек
ElementCount : 476
Размер потока : 23,6 Кбайт (0%)
Заголовок : Новые начинания-Russian.
Язык : Russian
Default : Да
Forced : Нет
Текст #2
Идентификатор : 5
Формат : UTF-8
Идентификатор кодека : S_TEXT/UTF8
Идентификатор кодека/Информация : UTF-8 Plain Text
Продолжительность : 45 м. 6 с.
Битрейт : 47 бит/сек
ElementCount : 587
Размер потока : 15,7 Кбайт (0%)
Заголовок : New Beginnings-Original - SDH
Язык : English
Default : Нет
Forced : Нет
Меню
00:00:00.000 : ru:Глава 01 / ru:Глава 01 / ru:Глава 01 / ru:Глава 01 / ru:Глава 01
--

Скриншоты

-- --Внимание! Раздача пополняется по мере выхода новых серий!--

Внимание! Раздача ведётся путём добавления новых серий!

Раздача ведётся путём добавления новых серий; при каждом добавлении создётся новый торрент.
Чтобы начать докачку новой серии, пользователям необходимо сделать следующее:
1. остановить скачивание,
2. удалить старый торрент у себя из клиента (старые серии удалять не надо),
3. скачать новый торрент и запустить его у себя в клиенте вместо старого, при этом указать клиенту путь в старую папку, куда и должно происходить скачивание новых серий.
Ваш клиент при этом должен произвести хеширование (проверку) старой папки (если не производит сам - помогите ему сделать это), и будет докачивать только те серии которых у вас ещё нет. Старые серии при этом не удаляются, а продолжают раздаваться!
Eсли вы уже удалили старые серии, то предотвратить повторную закачку старых серий можно, отжав галочку в соответсвующих местах при запуске нового торрента. По возможности, желательно не удалять старые серии как можно дольше, чтобы релизёр не столько продолжал раздавать старые серии, а смог сконцентрироваться на новых.
Совет для тех, кто не хочет ждать перехеширования:
Создайте ещё одну папку рядом с папкой сериала (рядом, а не в ней!!!). Каждую новую серию после удачной загрузки копируйте в новую папку так чтобы ваша основная папка всегда была пуста. Когда ваш новый торрент предложит вам закачать все файлы, выберете только последнюю. Для сидирования же укажите адрес новой папки.
Как закачать отдельный файл из торрента или докачать ранее пропущенные файлы торрента!

Как закачать отдельный файл

1. Открыть торрент
2. Снять галки с тех файлов торрента, которые мы не хотим закачивать. Оставляем только на нужных нам файлах (файле).
3. Нажать О.К.
В клиенте utorrent
Инструкция
1) Открыть торрент

2) Снять галки с тех файлов торрента, которые мы не хотим закачивать:
* либо вручную, снимая с каждого файла галку( скрин №1)
* либо, нажав кнопку "Снять метки (Select None)", сняв сразу со всех файлов(скрин №2)
№1

№2

Оставляем только на нужных нам файлах (файле).

3)Нажать О.К
-- -- --Внимание!!! 08.02. 2020. РАЗДАЧА ОБНОВЛЕНА. Добавлена - 10 - Серия. ОБНОВИТЕ ТОРЕНТ ФАЙЛ. ПРИЯТНОГО ПРОСМОТРА . Поблагодарить:
ЯД: 410017546713876
--Релиз от: Nikolai.Baranov & PIRATIYA -- -- -- --Время раздачи : 24/7---
Скачать

Скачать торрент! Викинги/ Vikings (Сезон 6 , Серия 1-10 из 20) ( Киаран Доннелли, Йохан Ренк, Кен Джиротти) [2019, Исторический, драма, приключения, боевик, викинги,WEB-DLRip 1080p] [AlexFilm+ ENG]+[Subs ENG]

Как скачивать? · Что такое торрент? · Рейтинг и ограничения

Сайт не распространяет и не хранит электронные версии произведений, а лишь предоставляет доступ к создаваемому пользователями каталогу ссылок на торрент-файлы, которые содержат только списки хеш-сумм

 
Показать сообщения:    
Ответить на тему

Текущее время: Сегодня 21:20

Часовой пояс: GMT + 4



Вы не можете начинать темы
Вы не можете отвечать на сообщения
Вы не можете редактировать свои сообщения
Вы не можете удалять свои сообщения
Вы не можете голосовать в опросах
Вы не можете прикреплять файлы к сообщениям
Вы не можете скачивать файлы