Механик / The Mechanic (Саймон Уэст / Simon West) [2011, США, боевик, триллер, драма, DVDRip] DUB

Ответить на тему
 
Автор Сообщение

user ®

Стаж: 11 лет

Сообщений: 15151

Пост Пост: #1 от 21-Фев-2011 21:32

[Цитировать]

Механик / The Mechanic
«Someone has to fix the problems.»
Страна: США
Студия: Millennium Films, Nu Image Entertainment GmbH
Жанр: боевик, триллер, драма
Год выпуска: 2011
Продолжительность: 01:28:31
Перевод: Профессиональный (дублированный)
Субтитры: нет
Оригинальная аудиодорожка: нет
Режиссер: Саймон Уэст / Simon West
В ролях: Джейсон Стэтхэм, Бен Фостер, Тони Голдуин, Дональд Сазерленд, Джефф Чейз, Мини Анден, Джеймс Логан, Эдди Дж. Фернандез, Джошуа Бриджуотер, Джон МакКоннелл...
Роли дублировали: Владимир Зайцев, Александр Гаврилин, Василий Дахненко, Петр Тобилевич, Татьяна Шитова...
Описание: Артур Бишоп — «Механик», высокопрофессиональный безукоризненный киллер, который всегда работает по правилам — «чисто» и без следов. Такая работа требует полного самообладания и беспристрастности, и в своём деле ему нет равных. Бишоп всегда работал один, но ему пришлось стать наставником молодого и отчаянного Стива. Методичный профессионал и импульсивный ученик теперь на пару «устраняют проблемы», но рано или поздно они сойдутся в смертельной схватке…

Бюджет: $40 000 000

Качество видео: DVDRip
Формат видео: AVI
Видео: 720x304 (2.35:1), 25.000 fps, XVID ~1963 kbps avg, 0.359 bit/pixel
Аудио: 48 kHz, AC3, 6 ch, 384.00 kbps Constant

MediaInfo

Общее
Полное имя : Mehanik.2011.D.DVDRip.avi
Формат : AVI
Формат/Информация : Audio Video Interleave
Размер файла : 1,46 Гбайт
Продолжительность : 1 ч. 28 м.
Общий поток : 2357 Кбит/сек
Программа кодирования : VirtualDubMod 1.5.10.3 (build 2550/release)
Библиотека кодирования : VirtualDubMod build 2550/release
Видео
Идентификатор : 0
Формат : MPEG-4 Visual
Профиль формата : Advanced Simple@L5
Параметр BVOP формата : Да
Параметр QPel формата : Нет
Параметр GMC формата : Без точки перехода
Параметр матрицы формата : Выборочная
Идентификатор кодека : XVID
Идентификатор кодека/Подсказка : XviD
Продолжительность : 1 ч. 28 м.
Битрейт : 1963 Кбит/сек
Ширина : 720 пикс.
Высота : 304 пикс.
Соотношение сторон : 2,35:1
Частота кадров : 25,000 кадр/сек
Цветовое пространство : YUV
Подвыборка цветности : 4:2:0
Битовая глубина : 8 бит
Тип развёртки : Прогрессивная
Метод сжатия : С потерями
Бит/(Пиксели*Кадры) : 0.359
Размер потока : 1,21 Гбайт (83%)
Библиотека кодирования : XviD 1.2.1 (UTC 2008-12-04)
Аудио
Идентификатор : 1
Формат : AC-3
Формат/Информация : Audio Coding 3
Расширение режима : CM (complete main)
Идентификатор кодека : 2000
Продолжительность : 1 ч. 28 м.
Вид битрейта : Постоянный
Битрейт : 384 Кбит/сек
Канал(ы) : 6 канала(ов)
Расположение каналов : Front: L C R, Side: L R, LFE
Частота : 48,0 КГц
Битовая глубина : 16 бит
Метод сжатия : С потерями
Размер потока : 243 Мбайт (16%)
Выравнивание : Разделение по промежуткам
Продолжительность промежутка : 40 мс. (1,00 видеокадр)
Время предзагрузки промежутка : 500 ms

Скриншот с названием

Скриншоты

Скачать

Скачать торрент! Механик / The Mechanic (Саймон Уэст / Simon West) [2011, США, боевик, триллер, драма, DVDRip] DUB

Как скачивать? · Что такое торрент? · Рейтинг и ограничения

Сайт не распространяет и не хранит электронные версии произведений, а лишь предоставляет доступ к создаваемому пользователями каталогу ссылок на торрент-файлы, которые содержат только списки хеш-сумм

[Профиль] [ЛС]
Показать сообщения:    
Ответить на тему

Текущее время: Сегодня 11:15

Часовой пояс: GMT + 4



Вы не можете начинать темы
Вы не можете отвечать на сообщения
Вы не можете редактировать свои сообщения
Вы не можете удалять свои сообщения
Вы не можете голосовать в опросах
Вы не можете прикреплять файлы к сообщениям
Вы не можете скачивать файлы