Джон Уик 3 / John Wick: Chapter 3 - Parabellum (Чад Стахелски) [2019,Боевик, триллер, криминал,WEB-DLRip 720p] [HDRezka+Ukr+ENG]+[Subs Rus , ENG]

Ответить на тему
 
Автор Сообщение

Nikolai.Baranov ®

Пост Пост: #1 от 24-Июл-2019 18:57

[Цитировать]

--Джон Уик 3 / John Wick: Chapter 3 - Parabellum -- --Год выпуска: 2019
Выпущено: США , Summit Entertainment, 87Eleven, Lionsgate
Жанр: Боевик, триллер, криминал
Продолжительность:02:10:45--Озвучка #1: Профессиональный многоголосый - HDRezka Studio - Русский
Озвучка #2: Дублированный - Line - Украинский
Озвучка #3: Профессиональный многоголосый -Английский - Оригинал
Субтитры: English, English SDH
--Релиз Без Рекламы --MDB 7.9 --Режиссеры:
Нил Чад Стахелски--В ролях: : Киану Ривз, Холли Берри, Иэн МакШейн, Лоуренс Фишборн, Марк Дакаскос, Азия Диллон, Лэнс Реддик, Тобиаш Сигал, Анжелика Хьюстон, Саид Тагмауи-- уперкиллер Джон Уик после нарушения кодекса тайной гильдии ассасинов получает статус изгоя - экскомьюникадо. За его голову назначена цена в 14 миллионов долларов, и армия самых жестоких профессиональных убийц со всего мира открывает на него кровавую охоту.-- --Качество :WEB-DLRip 720p
Формат: MKV
Видео кодек: H264
Видео: 3957Кбит/сек,1280х544(2.35.1),в 23.976кадр/сек,AVC (High@L4)(CABAC/10 Ref Frames)--Аудио Кодек:AAC
Аудио #1: AАC , 192 Kbps, 48.0 KHz, 2 ch- HDRezka -Русский
Аудио #2: AАC , 192 Kbps, 48.0 KHz, 2 ch- Line -Украинский
Аудио #3: AАC , 192 Kbps, 48.0 KHz, 2 ch - - English - Оригинал--

Доп. информация:

Звуковая дорожка сделана путем наложения чистого голоса озвучивателей на центральный канал оригинальной дорожки. Качество идентично звуковой дорожке.
--

MediaInfo

Общее
Уникальный идентификатор : 146558876353942438272218918799347641828 (0x6E42367DE6618CA089055BCB0BC56DE4)
Полное имя : C:\Users\Russian Patriot\Downloads\Хеллбой - Hellboy\HELLBOY_2019_Н264_DD5.1_N.B_HD_1080_2хRus_Ukr_Eng\Hellboy_2019_Н264_DD5.1_N.B_HD_1080_2хRus_Ukr_Eng.mkv
Формат : Matroska
Версия формата : Version 4
Размер файла : 7,83 Гбайт
Продолжительность : 2 ч. 0 м.
Общий поток : 9290 Кбит/сек
Название фиее
Уникальный идентификатор : 124995514383860656609963673581737647378 (0x5E0942AA01B6A3B9505371CA71CA9D12)
Полное имя : C:\Users\Russian Patriot\Downloads\Джон Уик 3 - John Wick Chapter 3 - Parabellum\John,Wick.Chapter 3.Parabellum.2019_Н264_ААС_N.B_HD_720_Rus_Ukr_Eng\John,Wick.Chapter 3.Parabellum.2019_Н264_ААС_N.B_HD_720_Rus_Ukr_Eng.mkv
Формат : Matroska
Версия формата : Version 4
Размер файла : 4,06 Гбайт
Продолжительность : 2 ч. 10 м.
Общий поток : 4448 Кбит/сек
Название фильма : John Wick Chapter 3 Parabellum 2019 @ Nikolai.Baranov & PIRATIYA
Дата кодирования : UTC 2019-07-24 09:30:29
Программа кодирования : mkvmerge v35.0.0 ('All The Love In The World') 64-bit
Библиотека кодирования : libebml v1.3.9 + libmatroska v1.5.2
Видео
Идентификатор : 1
Формат : AVC
Формат/Информация : Advanced Video Codec
Профиль формата : High@L4
Настройки формата : CABAC / 10 Ref Frames
Параметр CABAC формата : Да
Параметр RefFrames формата : 10 кадров
Идентификатор кодека : V_MPEG4/ISO/AVC
Продолжительность : 2 ч. 10 м.
Битрейт : 3957 Кбит/сек
Номинальный битрейт : 4300 Кбит/сек
Ширина : 1280 пикселей
Высота : 544 пикселя
Соотношение сторон : 2,35:1
Режим частоты кадров : Постоянный
Частота кадров : 23,976 (24000/1001) кадра/сек
Цветовое пространство : YUV
Субдискретизация насыщенности : 4:2:0
Битовая глубина : 8 бит
Тип развёртки : Прогрессивная
Бит/(Пиксели*Кадры) : 0.237
Размер потока : 3,61 Гбайт (89%)
Заголовок : John,Wick.Chapter 3.Parabellum.2019_Н264_ААС_N.B_HD_720_Rus_Ukr_Eng
Библиотека кодирования : x264 core 157 r2969 d4099dd
Настройки программы : cabac=1 / ref=10 / deblock=1:-3:-3 / analyse=0x3:0x133 / me=umh / subme=9 / psy=1 / psy_rd=0.98:0.04 / mixed_ref=1 / me_range=48 / chroma_me=1 / trellis=1 / 8x8dct=1 / cqm=0 / deadzone=21,11 / fast_pskip=1 / chroma_qp_offset=-3 / threads=5 / lookahead_threads=1 / sliced_threads=0 / nr=0 / decimate=1 / interlaced=0 / bluray_compat=0 / constrained_intra=0 / bframes=3 / b_pyramid=2 / b_adapt=2 / b_bias=0 / direct=3 / weightb=1 / open_gop=0 / weightp=2 / keyint=240 / keyint_min=24 / scenecut=40 / intra_refresh=0 / rc_lookahead=40 / rc=cbr / mbtree=1 / bitrate=4300 / ratetol=1.0 / qcomp=0.60 / qpmin=0 / qpmax=69 / qpstep=4 / vbv_maxrate=4300 / vbv_bufsize=3071 / nal_hrd=none / filler=0 / ip_ratio=1.40 / aq=1:1.00
Язык : Russian
Default : Да
Forced : Нет
Аудио #1
Идентификатор : 2
Формат : AAC LC
Формат/Информация : Advanced Audio Codec Low Complexity
Идентификатор кодека : A_AAC-2
Продолжительность : 2 ч. 10 м.
Битрейт : 163 Кбит/сек
Каналы : 2 канала
ChannelLayout : L R
Частота : 48,0 КГц
Частота кадров : 46,875 кадров/сек (1024 SPF)
Метод сжатия : С потерями
Размер потока : 152 Мбайт (4%)
Заголовок : MVO HDRezka @ AАC , 192 Kbps, 48.0 KHz, 2 ch
Язык : Russian
Default : Да
Forced : Нет
Аудио #2
Идентификатор : 3
Формат : AAC LC
Формат/Информация : Advanced Audio Codec Low Complexity
Идентификатор кодека : A_AAC-2
Продолжительность : 2 ч. 10 м.
Битрейт : 163 Кбит/сек
Каналы : 2 канала
ChannelLayout : L R
Частота : 48,0 КГц
Частота кадров : 46,875 кадров/сек (1024 SPF)
Метод сжатия : С потерями
Размер потока : 152 Мбайт (4%)
Заголовок : DUB Ukr-Line @ AАC , 192 Kbps, 48.0 KHz, 2 ch
Язык : Ukrainian
Default : Нет
Forced : Нет
Аудио #3
Идентификатор : 4
Формат : AAC LC
Формат/Информация : Advanced Audio Codec Low Complexity
Идентификатор кодека : A_AAC-2
Продолжительность : 2 ч. 10 м.
Битрейт : 163 Кбит/сек
Каналы : 2 канала
ChannelLayout : L R
Частота : 48,0 КГц
Частота кадров : 46,875 кадров/сек (1024 SPF)
Метод сжатия : С потерями
Размер потока : 152 Мбайт (4%)
Заголовок : Original @ AАC , 192 Kbps, 48.0 KHz, 2 ch
Язык : English
Default : Нет
Forced : Нет
Текст #1
Идентификатор : 5
Формат : UTF-8
Идентификатор кодека : S_TEXT/UTF8
Идентификатор кодека/Информация : UTF-8 Plain Text
Продолжительность : 2 ч. 9 м.
Битрейт : 29 бит/сек
ElementCount : 1142
Размер потока : 28,0 Кбайт (0%)
Заголовок : Original - SDH
Язык : English
Default : Да
Forced : Нет
Текст #2
Идентификатор : 6
Формат : UTF-8
Идентификатор кодека : S_TEXT/UTF8
Идентификатор кодека/Информация : UTF-8 Plain Text
Продолжительность : 2 ч. 8 м.
Битрейт : 22 бит/сек
ElementCount : 765
Размер потока : 21,3 Кбайт (0%)
Заголовок : Original
Язык : English
Default : Нет
Forced : Нет
Меню
00:00:00.000 : :Глава 01 / :Глава 01 / :Глава 01 / :Глава 01 / :Глава 01 / :Глава 01
--

Скриншоты

-- -- -- --Релиз от: Nikolai.Baranov & PIRATIYA . Поблагодарить:
ЯД: 410017546713876
-- -- -- --Время раздачи : 24/7---
Скачать

Скачать торрент! Джон Уик 3 / John Wick: Chapter 3 - Parabellum (Чад Стахелски) [2019,Боевик, триллер, криминал,WEB-DLRip 720p] [HDRezka+Ukr+ENG]+[Subs Rus , ENG]

Как скачивать? · Что такое торрент? · Рейтинг и ограничения

Сайт не распространяет и не хранит электронные версии произведений, а лишь предоставляет доступ к создаваемому пользователями каталогу ссылок на торрент-файлы, которые содержат только списки хеш-сумм

 
Показать сообщения:    
Ответить на тему

Текущее время: Сегодня 11:53

Часовой пояс: GMT + 4



Вы не можете начинать темы
Вы не можете отвечать на сообщения
Вы не можете редактировать свои сообщения
Вы не можете удалять свои сообщения
Вы не можете голосовать в опросах
Вы не можете прикреплять файлы к сообщениям
Вы не можете скачивать файлы