Чужой Антология / Alien Antology (Сезон 1 , Серия 1-6 из 6 ) (Джеймисон М. Локасио) [2019, Ужасы, научная-фантастика,WEB-DLRip 1080p] [LostFilm +ENG]

Ответить на тему
 
Автор Сообщение

Nikolai.Baranov ®

Пост Пост: #1 от 23-Июн-2019 19:46

[Цитировать]

-- -- Чужой Антология / Alien Antology Сезон 1 , Серия 1-6 из 6 - Короткометражный фильм «Чужой 40-летний юбилей» - Alien 40th Anniversary Short Films -- --Год выпуска: 2019
Выпущено: США , 20th Century Fox
Жанр: Ужасы, научная-фантастика
Продолжительность: 00:15:00
Сезон: 1
Серия:1-6
Количество серий в сезоне:6--Озвучка #1: Профессиональный многоголосый - LostFilm - Русский
Озвучка #2: Профессиональный многоголосый -Английский - Оригинал--Релиз Без Рекламы --MDB Сайт сериала: --Режиссеры:
Джеймисон М. Локасио--В ролях: : Адам Амброзио , Джеймисон М. ЛоКассио , Мэтт Пейнович, Сигурни Уивер-- Антология включает квадрологию Чужой, Прометей и Чужой: Завет. Команда Прометея в поисках происхождения человечества сталкиваются с таинственными «Космическими жокеями», способными уничтожить все население Земли. Спустя 10 лет колониальный корабль "Завет" попал в нейтринную вспышку и отделавшись легким испугом, экипаж получает загадочный сигнал с неизвестной планеты, на которой есть все условия для жизни. Затем Сигурни Уивер будет сражаться против самых ужасных созданий в истории кинематографа во всех четырех захватывающих частях Чужих – Чужом, Чужих, Чужом 3 и Чужом: Воскрешение.-- --Качество :WEB-DLRip 1080p
Формат: MKV
Видео кодек: H264
Видео: 7214Кбит/сек,1920х1080(16.9),в 23.976кадр/сек,AVC (High@L4.1)(CABAC/4 Ref Frames)--Аудио Кодек:AC3
Аудио #1:AC3 384 Kbps, 48.0 KHz, 6 ch- - LostFilm -Русский
Аудио #2: AC3, 384 Kbps, 48.0 KHz,6 ch - - English - Оригинал--

Доп. информация:

Звуковая дорожка сделана путем наложения чистого голоса озвучивателей на центральный канал оригинальной дорожки. Качество идентично звуковой дорожке.
--

Список эпизодов сезона


1 сезон 1 серия - Заражение - Alien: Containment
1 сезон 2 серия - Образец - Alien: Specimen
1 сезон 3 серия - Ночная смена - Alien: Night Shift1 сезон 4 серия -
1 сезон 4 серия - Руда - Alien: Ore
1 сезон 5 серия - Одна - Alien:Alone
1 сезон 6 серия - Урожай - Alien: Harvest
--

MediaInfo сезона

Общее
Уникальный идентификатор : 211898275318970246588503811596791091805 (0x9F6A1F9486BBEA0F06B354B5BDE4925D)
Полное имя : C:\Users\Russian Patriot\Downloads\Чужой Антология - Alien Antology\Alien_Antology_2019_E01-Е06_Н264_DD5.1_N.B_HD_1080_LostFilm_Rus_Eng\Alien_Antology_2019_E01-Е06_Н264_DD5.1_N.B_HD_1080_LostFilm_Rus_Eng.mkv
Формат : Matroska
Версия формата : Version 4
Размер файла : 3,19 Гбайт
Продолжительность : 57 м. 17 с.
Общий поток : 7985 Кбит/сек
Название фильма : Alien Antology 2019 E01-Е06 @ Nikolai.Baranov & PIRATIYA
Дата кодирования : UTC 2019-06-23 13:35:32
Программа кодирования : mkvmerge v35.0.0 ('All The Love In The World') 64-bit
Библиотека кодирования : libebml v1.3.9 + libmatroska v1.5.2
Видео
Идентификатор : 1
Формат : AVC
Формат/Информация : Advanced Video Codec
Профиль формата : High@L4.1
Настройки формата : CABAC / 4 Ref Frames
Параметр CABAC формата : Да
Параметр RefFrames формата : 4 кадра
Идентификатор кодека : V_MPEG4/ISO/AVC
Продолжительность : 57 м. 17 с.
Битрейт : 7214 Кбит/сек
Ширина : 1920 пикселей
Высота : 1080 пикселей
Соотношение сторон : 16:9
Режим частоты кадров : Постоянный
Частота кадров : 23,976 (23976/1000) кадра/сек
Цветовое пространство : YUV
Субдискретизация насыщенности : 4:2:0
Битовая глубина : 8 бит
Тип развёртки : Прогрессивная
Бит/(Пиксели*Кадры) : 0.145
Размер потока : 2,89 Гбайт (90%)
Заголовок : Alien_Antology_2019_E01-Е06_Н264_DD5.1_N.B_HD_1080_LostFilm_Rus_Eng
Язык : Russian
Default : Нет
Forced : Нет
Аудио #1
Идентификатор : 2
Формат : AC-3
Формат/Информация : Audio Coding 3
Коммерческое название : Dolby Digital
Идентификатор кодека : A_AC3
Продолжительность : 57 м. 17 с.
Вид битрейта : Постоянный
Битрейт : 384 Кбит/сек
Каналы : 6 каналов
ChannelLayout : L R C LFE Ls Rs
Частота : 48,0 КГц
Частота кадров : 31,250 кадров/сек (1536 SPF)
Битовая глубина : 16 бит
Метод сжатия : С потерями
Размер потока : 157 Мбайт (5%)
Заголовок : MVO LostFilm @DD5.1 AC3, 384 Kbps, 48.0 KHz, 6 ch
Язык : Russian
ServiceKind/String : Complete Main
Default : Да
Forced : Нет
Аудио #2
Идентификатор : 3
Формат : AC-3
Формат/Информация : Audio Coding 3
Коммерческое название : Dolby Digital
Идентификатор кодека : A_AC3
Продолжительность : 57 м. 17 с.
Вид битрейта : Постоянный
Битрейт : 384 Кбит/сек
Каналы : 6 каналов
ChannelLayout : L R C LFE Ls Rs
Частота : 48,0 КГц
Частота кадров : 31,250 кадров/сек (1536 SPF)
Битовая глубина : 16 бит
Метод сжатия : С потерями
Размер потока : 157 Мбайт (5%)
Заголовок : Original@DD5.1 AC3 ,384 Kbps, 48.0 KHz, 6 ch
Язык : English
ServiceKind/String : Complete Main
Default : Нет
Forced : Нет
Меню
00:00:00.000 : :Глава 01 / :Глава 01 / :Глава 01
--

Скриншоты

-- ---- -- --Релиз от: Nikolai.Baranov & PIRATIYA
Поблагодарить:
ЯД: 410017546713876
-- -- -- --Время раздачи : 24/7--
Скачать

Скачать торрент! Чужой Антология / Alien Antology (Сезон 1 , Серия 1-6 из 6 ) (Джеймисон М. Локасио) [2019, Ужасы, научная-фантастика,WEB-DLRip 1080p] [LostFilm +ENG]

Как скачивать? · Что такое торрент? · Рейтинг и ограничения

Сайт не распространяет и не хранит электронные версии произведений, а лишь предоставляет доступ к создаваемому пользователями каталогу ссылок на торрент-файлы, которые содержат только списки хеш-сумм

 
Показать сообщения:    
Ответить на тему

Текущее время: Сегодня 15:01

Часовой пояс: GMT + 4



Вы не можете начинать темы
Вы не можете отвечать на сообщения
Вы не можете редактировать свои сообщения
Вы не можете удалять свои сообщения
Вы не можете голосовать в опросах
Вы не можете прикреплять файлы к сообщениям
Вы не можете скачивать файлы