Питомец Юрского периода / The Adventures of Jurassic Pet (2019) DVDRip [MVO]

Ответить на тему
 
Автор Сообщение

Magnat ®

Пол:

Стаж: 3 года 11 месяцев

Сообщений: 420

Откуда: xxxtorrents.pro

Пост Пост: #1 от 13-Май-2019 00:20

[Цитировать]

Питомец Юрского периода / The Adventures of Jurassic Pet - Производство: США / Ace Entertainment
Жанр: Приключения, Семейный
Режиссер: Райан Белгардт
Актеры: Дэвид Флетчер-Холл, Кайлер Чарльз Бек, Бен Холл, Брукс Райан, К. Нил Давенпорт, Дэвид Си Там, Джэми Лой, Лори Каммингс, Эван Ассанте, Джейк Уошберн-Бесстрашный мальчик Крис, помогает дружелюбному динозавру вырваться из рук учёного,
который планирует проводить над ним эксперименты.
Рейтинг MPAA: PG (рекомендуется присутствие родителей)
Дата мировой премьеры: 16 апреля 2019
Дата российской премьеры: 6 июня 2019, «Планета Информ»
Продолжительность: 01:24:32
Качество видео: DVDRip
Перевод: Многоголосый закадровый (Синема УС)
Субтитры: Отсутствуют
Видео: XviD, 720x304, 2 080 Kbps
Аудио: AC-3, 2 ch, 384 Kbps

Mediainfo:

Общее
Полное имя : G:\The Adventures of Jurassic Pet (2019).avi
Формат : AVI
Формат/Информация : Audio Video Interleave
Профиль формата : OpenDML
Размер файла : 1,46 Гбайт
Продолжительность : 1 ч. 24 м.
Общий поток : 2476 Кбит/сек
Авторское право : [#ZsUВ®]
Видео
Идентификатор : 0
Формат : MPEG-4 Visual
Профиль формата : Advanced Simple@L5
Параметр BVOP формата : Нет
Параметр QPel формата : Нет
Параметр GMC формата : Без точки перехода
Параметр матрицы формата : Default (H.263)
Идентификатор кодека : XVID
Идентификатор кодека/Подсказка : XviD
Продолжительность : 1 ч. 24 м.
Битрейт : 2080 Кбит/сек
Ширина : 720 пикселей
Высота : 304 пикселя
Соотношение сторон : 2,40:1
Частота кадров : 23,976 (24000/1001) кадра/сек
Цветовое пространство : YUV
Субдискретизация насыщенности : 4:2:0
Битовая глубина : 8 бит
Тип развёртки : Прогрессивная
Метод сжатия : С потерями
Бит/(Пиксели*Кадры) : 0.396
Размер потока : 1,23 Гбайт (84%)
Заголовок : USA (Ace Entertainment, Adventures of Jurassic Pet, The, Boiling Point Media)
Библиотека кодирования : XviD 67
Аудио
Идентификатор : 1
Формат : AC-3
Формат/Информация : Audio Coding 3
Расширение режима : CM (complete main)
Параметр Endianness формата : Big
Идентификатор кодека : 2000
Продолжительность : 1 ч. 24 м.
Вид битрейта : Постоянный
Битрейт : 384 Кбит/сек
Каналы : 2 канала
Расположение каналов : Front: L R
Частота : 48,0 КГц
Частота кадров : 31,250 кадров/сек (1536 spf)
Битовая глубина : 16 бит
Метод сжатия : С потерями
Размер потока : 232 Мбайт (16%)
Выравнивание : Соединение по промежуткам
Продолжительность промежутка : 32 мс. (0,77 видеокадр)
Заголовок : MVO (Sinema UP)
Скриншоты:
Скачать

Скачать торрент!

Как скачивать? · Что такое торрент? · Рейтинг и ограничения

Сайт не распространяет и не хранит электронные версии произведений, а лишь предоставляет доступ к создаваемому пользователями каталогу ссылок на торрент-файлы, которые содержат только списки хеш-сумм

загрузка...

_________________
ПУСТЬ ВАС НЕ СМУЩАЕТ ОТСУТСТВИЕ СИДОВ НА МОИХ РАЗДАЧАХ, РАЗДАЧИ МУЛЬТИТРЕКЕРНЫЕ СИДЫ (Раздающие) по DHT ЕСТЬ ВСЕГДА !!!!
[Профиль] [ЛС]
Показать сообщения:    
Ответить на тему

Текущее время: Сегодня 06:38

Часовой пояс: GMT + 4



Вы не можете начинать темы
Вы не можете отвечать на сообщения
Вы не можете редактировать свои сообщения
Вы не можете удалять свои сообщения
Вы не можете голосовать в опросах
Вы не можете прикреплять файлы к сообщениям
Вы не можете скачивать файлы