Чего хотят мужчины / What Men Want (Адам Шенкман / Adam Shankman) [2019, США, фэнтези, мелодрама, комедия, BDRip] MVO (HDRezka Studio)

Ответить на тему
 
Автор Сообщение

Magnat ®

Пол:

Стаж: 4 года 1 месяц

Сообщений: 420

Откуда: xxxtorrents.pro

Пост Пост: #1 от 13-Май-2019 00:20

[Цитировать]

Чего хотят мужчины / What Men Want
Страна: США
Жанр: фэнтези, мелодрама, комедия
Год выпуска: 2019
Продолжительность: 01:35:06-Перевод: Любительский (многоголосый закадровый) | HDRezka Studio
Субтитры: нет
Оригинальная аудиодорожка: нет-Режиссер: Адам Шенкман / Adam Shankman-В ролях: Тараджи П. Хенсон, Кристен Ледлоу, Джош Бренер, Келлан Латс, Джастин Альварез, Крис Витаск, Макс Гринфилд, Пол Брайан Джонсон, Брайан Босворт, Каусар Мохаммед, Трэйси Морган-Описание: Али Дэвис - успешный менеджер спортивных звезд, продвижению по карьере которой постоянно мешают коллеги-мужчины. Получив возможность слышать мысли мужчин, она использует свой талант, чтобы изменить правила игры и заключить контракт с молодым и талантливым бейсболистом.- -Качество видео: BDRip | What.Men.Want.2019.1080p.BluRay.REMUX.AVC.TrueHD7.1-iFT
Формат видео: AVI
Видео: 720x304 (2.37:1), 23.976 fps, XviD build 73 ~1574 kbps avg, 0.30 bit/pixel
Аудио: 48 kHz, AC3 Dolby Digital, 2/0 (L,R) ch, ~192 kbps-[box]Сэмпл[/box]-

MediaInfo

Код:Формат : AVI
Формат/Информация : Audio Video Interleave
Размер файла : 1,45 Гбайт
Продолжительность : 1 ч. 57 м.
Общий поток : 1776 Кбит/сек
Название фильма : Чего хотят мужчины_2019_BDRip
Ограничение по возрасту : не проходило оценку
Программа кодирования : VirtualDubMod 1.5.10.3 | www.virtualdub-fr.org || (build 2550/release)
Видео
Идентификатор : 0
Формат : MPEG-4 Visual
Профиль формата : Advanced Simple@L5
Настройки формата : BVOP1 / Custom Matrix
Параметр BVOP формата : 1
Параметр QPel формата : Нет
Параметр GMC формата : Без точки перехода
Параметр матрицы формата : Выборочная
Идентификатор кодека : XVID
Идентификатор кодека/Подсказка : XviD
Продолжительность : 1 ч. 57 м.
Битрейт : 1575 Кбит/сек
Ширина : 720 пикселей
Высота : 304 пикселя
Соотношение сторон : 2,35:1
Частота кадров : 23,976 (24000/1001) кадра/сек
Частота кадров в оригинале : 23,976 (23976/1000) кадра/сек
Цветовое пространство : YUV
Субдискретизация насыщенности : 4:2:0
Битовая глубина : 8 бит
Тип развёртки : Прогрессивная
Метод сжатия : С потерями
Бит/(Пиксели*Кадры) : 0.300
Размер потока : 1,29 Гбайт (89%)
Библиотека кодирования : XviD 73
Аудио
Идентификатор : 1
Формат : AC-3
Формат/Информация : Audio Coding 3
Коммерческое название : Dolby Digital
Идентификатор кодека : 2000
Продолжительность : 1 ч. 57 м.
Вид битрейта : Постоянный
Битрейт : 192 Кбит/сек
Каналы : 2 канала
ChannelLayout : L R
Частота : 48,0 КГц
Частота кадров : 31,250 кадров/сек (1536 SPF)
Битовая глубина : 16 бит
Метод сжатия : С потерями
Размер потока : 161 Мбайт (11%)
Выравнивание : Разделение по промежуткам
Продолжительность промежутка : 42 мс. (1,00 видеокадр)
Время предзагрузки промежутка : 500 мс.
Заголовок : MVO
Язык : Русский
ServiceKind/String : Complete Main

Скриншоты


Скачать

Скачать торрент!

Как скачивать? · Что такое торрент? · Рейтинг и ограничения

Сайт не распространяет и не хранит электронные версии произведений, а лишь предоставляет доступ к создаваемому пользователями каталогу ссылок на торрент-файлы, которые содержат только списки хеш-сумм

загрузка...

_________________
ПУСТЬ ВАС НЕ СМУЩАЕТ ОТСУТСТВИЕ СИДОВ НА МОИХ РАЗДАЧАХ, РАЗДАЧИ МУЛЬТИТРЕКЕРНЫЕ СИДЫ (Раздающие) по DHT ЕСТЬ ВСЕГДА !!!!
[Профиль] [ЛС]
Показать сообщения:    
Ответить на тему

Текущее время: Сегодня 06:34

Часовой пояс: GMT + 4



Вы не можете начинать темы
Вы не можете отвечать на сообщения
Вы не можете редактировать свои сообщения
Вы не можете удалять свои сообщения
Вы не можете голосовать в опросах
Вы не можете прикреплять файлы к сообщениям
Вы не можете скачивать файлы