Снегоуборщик / Cold Pursuit (Ханс Петтер Муланд / Hans Petter Moland) [2019, Великобритания, Норвегия, Канада, США, Франция, боевик, триллер, драма, криминал, WEB-DLRip] MVO (СВ Студия)

Ответить на тему
 
Автор Сообщение

Magnat ®

Пол:

Стаж: 4 года 1 месяц

Сообщений: 420

Откуда: xxxtorrents.pro

Пост Пост: #1 от 13-Май-2019 00:12

[Цитировать]

-Снегоуборщик / Cold Pursuit-«Он убирает снег и… наркодилеров»- -Страна: Великобритания, Норвегия, Канада, США, Франция
Жанр: боевик, триллер, драма, криминал
Год выпуска: 2019
Продолжительность: 01:58:59-Перевод: Профессиональный (многоголосый закадровый) СВ Студия
Субтитры: нет
Оригинальная аудиодорожка: нет-Режиссер: Ханс Петтер Муланд / Hans Petter Moland-В ролях: Лиам Нисон, Лора Дерн, Эмми Россам, Том Бейтман, Уильям Форсайт, Джулия Джонс, Майкл Нисон-Описание: Мистер Коксман — примерный семьянин и уважаемый гражданин, размеренная жизнь которого заканчивается, когда наркоторговцы убивают его сына. В поисках справедливости он с ледяным хладнокровием начинает изощренно убирать бандитов одного за другим...- - -Качество видео: WEB-DLRip / WEB-DL 1080p
Формат видео: AVI-Видео: XviD, 720x304 (2.35:1), 23.976 fps, ~1554 kbps avg, 0.296 bit/pixel
Аудио: 48 kHz, AC3 Dolby Digital, 2/0 (L,R) ch, ~192 kbps avg-

MediaInfo

Код:Complete name : D:\Раздача\Снегоуборщик (2019) WEB-DLRip_ivanes.avi
Format : AVI
Format/Info : Audio Video Interleave
File size : 1.46 GiB
Duration : 1 h 58 min
Overall bit rate : 1 755 kb/s
Writing application : VirtualDubMod 1.5.10.3 (build 2550/release)
Writing library : VirtualDubMod build 2550/release
Video
ID : 0
Format : MPEG-4 Visual
Format profile : Advanced Simple@L5
Format settings, BVOP : 1
Format settings, QPel : No
Format settings, GMC : No warppoints
Format settings, Matrix : Custom
Codec ID : XVID
Codec ID/Hint : XviD
Duration : 1 h 58 min
Bit rate : 1 554 kb/s
Width : 720 pixels
Height : 304 pixels
Display aspect ratio : 2.35:1
Frame rate : 23.976 (24000/1001) FPS
Color space : YUV
Chroma subsampling : 4:2:0
Bit depth : 8 bits
Scan type : Progressive
Compression mode : Lossy
Bits/(Pixel*Frame) : 0.296
Stream size : 1.29 GiB (89%)
Writing library : XviD 67
Audio
ID : 1
Format : AC-3
Format/Info : Audio Coding 3
Format settings, Endianness : Big
Codec ID : 2000
Duration : 1 h 58 min
Bit rate mode : Constant
Bit rate : 192 kb/s
Channel(s) : 2 channels
Channel positions : Front: L R
Sampling rate : 48.0 kHz
Frame rate : 31.250 FPS (1536 SPF)
Bit depth : 16 bits
Compression mode : Lossy
Stream size : 163 MiB (11%)
Alignment : Split accross interleaves
Interleave, duration : 42 ms (1.00 video frame)
Interleave, preload duratio : 500 ms
Service kind : Complete Main

Скриншоты

Скачать

Скачать торрент!

Как скачивать? · Что такое торрент? · Рейтинг и ограничения

Сайт не распространяет и не хранит электронные версии произведений, а лишь предоставляет доступ к создаваемому пользователями каталогу ссылок на торрент-файлы, которые содержат только списки хеш-сумм

загрузка...

_________________
ПУСТЬ ВАС НЕ СМУЩАЕТ ОТСУТСТВИЕ СИДОВ НА МОИХ РАЗДАЧАХ, РАЗДАЧИ МУЛЬТИТРЕКЕРНЫЕ СИДЫ (Раздающие) по DHT ЕСТЬ ВСЕГДА !!!!
[Профиль] [ЛС]
Показать сообщения:    
Ответить на тему

Текущее время: Сегодня 06:03

Часовой пояс: GMT + 4



Вы не можете начинать темы
Вы не можете отвечать на сообщения
Вы не можете редактировать свои сообщения
Вы не можете удалять свои сообщения
Вы не можете голосовать в опросах
Вы не можете прикреплять файлы к сообщениям
Вы не можете скачивать файлы