Западня / The Trap (Эрик Уайт / Erik White) [2019, США, комедия, WEB-DLRip] MVO (HDRezka Studio)

Ответить на тему
 
Автор Сообщение

Magnat ®

Пол:

Стаж: 4 года 4 месяца

Сообщений: 420

Откуда: xxxtorrents.pro

Пост Пост: #1 от 13-Май-2019 00:11

[Цитировать]

Западня / The Trap
Страна: США
Жанр: комедия
Год выпуска: 2019
Продолжительность: 01:30:44-Перевод: Любительский (многоголосый закадровый) | HDRezka Studio
Субтитры: нет
Оригинальная аудиодорожка: нет-Режиссер:
Эрик Уайт / Erik White-В ролях:
Ти-Ай, Майк Эппс, Лоретта Дивайн, Куин Латифа, Тейяна Тейлор, Мэган Тэнди, Джоэль Раш, Мила Дж., Стефен Бишоп, Келли «K. Dubb» Уокер-Описание:
Талантливый шеф-повар Сонни решает открыть новый ресторан в Лос-Анджелесе, но прежде чем перебраться на Запад, он заезжает в Атланту к семье. Вот только дома его ждет огромное количество проблем: мать больна, брат увяз в наркобизнесе, а семейный ресторан, когда-то приносящий хорошую прибыль, находится на грани банкротства. Сонни предстоит сделать трудный выбор: оказаться от своей мечты, чтобы сохранить семейный бизнес на плаву, или попробовать наладить все дома, прежде чем начинать новую жизнь на побережье...-Качество видео: WEB-DLRip
Формат видео: AVI
Видео: 704x400 (1.76:1), 23.976 fps, XviD build 73 ~2095 kbps avg, 0.31 bit/pixel
Аудио: 48 kHz, AC3 Dolby Digital, 2/0 (L,R) ch, ~192 kbps-[box]Сэмпл[/box]-

MediaInfo

Код:Формат : AVI
Формат/Информация : Audio Video Interleave
Размер файла : 1,46 Гбайт
Продолжительность : 1 ч. 30 м.
Общий поток : 2297 Кбит/сек
Название фильма : Западня_2019_WEB-DLRip
Программа кодирования : VirtualDubMod 1.5.10.3 | www.virtualdub-fr.org || (build 2550/release)
Авторское право : порошков
Видео
Идентификатор : 0
Формат : MPEG-4 Visual
Профиль формата : Advanced Simple@L5
Настройки формата : BVOP1 / Custom Matrix
Параметр BVOP формата : 1
Параметр QPel формата : Нет
Параметр GMC формата : Без точки перехода
Параметр матрицы формата : Выборочная
Идентификатор кодека : XVID
Идентификатор кодека/Подсказка : XviD
Продолжительность : 1 ч. 30 м.
Битрейт : 2095 Кбит/сек
Ширина : 704 пикселя
Высота : 400 пикселей
Соотношение сторон : 16:9
Частота кадров : 23,976 (24000/1001) кадра/сек
Цветовое пространство : YUV
Субдискретизация насыщенности : 4:2:0
Битовая глубина : 8 бит
Тип развёртки : Прогрессивная
Метод сжатия : С потерями
Бит/(Пиксели*Кадры) : 0.310
Размер потока : 1,33 Гбайт (91%)
Библиотека кодирования : XviD 73
Аудио
Идентификатор : 1
Формат : AC-3
Формат/Информация : Audio Coding 3
Коммерческое название : Dolby Digital
Идентификатор кодека : 2000
Продолжительность : 1 ч. 30 м.
Вид битрейта : Постоянный
Битрейт : 192 Кбит/сек
Каналы : 2 канала
ChannelLayout : L R
Частота : 48,0 КГц
Частота кадров : 31,250 кадров/сек (1536 SPF)
Битовая глубина : 16 бит
Метод сжатия : С потерями
Размер потока : 125 Мбайт (8%)
Выравнивание : Разделение по промежуткам
Продолжительность промежутка : 42 мс. (1,00 видеокадр)
Время предзагрузки промежутка : 500 мс.
ServiceKind/String : Complete Main

Скриншоты


Скачать

Скачать торрент!

Как скачивать? · Что такое торрент? · Рейтинг и ограничения

Сайт не распространяет и не хранит электронные версии произведений, а лишь предоставляет доступ к создаваемому пользователями каталогу ссылок на торрент-файлы, которые содержат только списки хеш-сумм

загрузка...

_________________
ПУСТЬ ВАС НЕ СМУЩАЕТ ОТСУТСТВИЕ СИДОВ НА МОИХ РАЗДАЧАХ, РАЗДАЧИ МУЛЬТИТРЕКЕРНЫЕ СИДЫ (Раздающие) по DHT ЕСТЬ ВСЕГДА !!!!
[Профиль] [ЛС]
Показать сообщения:    
Ответить на тему

Текущее время: Сегодня 00:19

Часовой пояс: GMT + 4



Вы не можете начинать темы
Вы не можете отвечать на сообщения
Вы не можете редактировать свои сообщения
Вы не можете удалять свои сообщения
Вы не можете голосовать в опросах
Вы не можете прикреплять файлы к сообщениям
Вы не можете скачивать файлы