Искупление / Atone (2019) WEB-DL [H.264/1080p-LQ] [MVO]

Ответить на тему
 
Автор Сообщение

Magnat ®

Пол:

Стаж: 4 года 4 месяца

Сообщений: 420

Откуда: xxxtorrents.pro

Пост Пост: #1 от 12-Май-2019 23:55

[Цитировать]

Искупление / Atone- Производство: США / Sweet Unknown Studios, Soulidifly
Жанр: Боевик
Режиссер: Уэс Миллер
Актеры: Роберт Раслер, Коламбус Шорт, Стефен Фаррелли, Скотт Элрод, Жаклин Флеминг, Коттон Янси, Майкл Рэндолл, Аспен Кеннеди Уилсон, Кертис Никулс, Джексон Роуден-Лаура Бишоп — бывший солдат элитного отряда специального назначения, которая переживает не самые лучшие времена. Ей приходится в одиночку заботится о своей единственной дочери и привыкать к гражданской жизни. Когда Лаура получает новую работу, которая состоит в обеспечении безопасности огромной церкви, ничего не предвещает беды, однако ее не покидает тревожное чувство. Неожиданно церковь захватывает группа вооруженных людей в масках, а внутри, вместе с остальными заложниками, оказывается дочь главной героини...
Дата мировой премьеры: 17 февраля 2019
Продолжительность: 01:29:51
Качество видео: WEB-DL
Перевод: Многоголосый закадровый, профессиональный (HDrezka Studio)
Субтитры: Английские (Full)
Видео: AVC/H.264, 1902x804, ~4508 Kbps
Аудио #1: AC3, 2 ch, 256 Kbps - Русский
Аудио #2: AC3, 6 ch, 384 Kbps - Английский

MediaInfo:

Общее
Уникальный идентификатор : 240795177498259219692171761602770092540 (0xB52776DB1B2916609D5DDF13E759C1FC)
Полное имя : C:\XX\Искупление\Atone 2019 1080p WEB-DL 1080p-LQ.mkv
Формат : Matroska
Версия формата : Version 2
Размер файла : 3,30 Гбайт
Продолжительность : 1 ч. 29 м.
Общий поток : 5252 Кбит/сек
Название фильма : Atone 2019 from ExKinoRay
Дата кодирования : UTC 2019-05-10 21:54:52
Программа кодирования : mkvmerge v5.6.0 ('Kenya Kane') built on May 27 2012 16:44:04
Библиотека кодирования : libebml v1.2.3 + libmatroska v1.3.0
Видео
Идентификатор : 1
Формат : AVC
Формат/Информация : Advanced Video Codec
Профиль формата : High@L4
Настройки формата : CABAC / 5 Ref Frames
Параметр CABAC формата : Да
Параметр RefFrames формата : 5 кадров
Идентификатор кодека : V_MPEG4/ISO/AVC
Продолжительность : 1 ч. 29 м.
Битрейт : 4508 Кбит/сек
Ширина : 1902 пикселя
Высота : 804 пикселя
Соотношение сторон : 2,35:1
Режим частоты кадров : Постоянный
Частота кадров : 23,976 кадра/сек
Цветовое пространство : YUV
Субдискретизация насыщенности : 4:2:0
Битовая глубина : 8 бит
Тип развёртки : Прогрессивная
Бит/(Пиксели*Кадры) : 0.123
Размер потока : 2,83 Гбайт (86%)
Заголовок : Atone.2019.1080p.WEB-DL
Язык : English
Default : Да
Forced : Нет
Цветовой диапазон : Limited
Основные цвета : BT.709
Характеристики трансфера : BT.709
Коэффициенты матрицы : BT.709
Аудио #1
Идентификатор : 2
Формат : AC-3
Формат/Информация : Audio Coding 3
Коммерческое название : Dolby Digital
Идентификатор кодека : A_AC3
Продолжительность : 1 ч. 29 м.
Вид битрейта : Постоянный
Битрейт : 256 Кбит/сек
Каналы : 2 канала
Channel layout : L R
Частота : 48,0 КГц
Частота кадров : 31,250 кадров/сек (1536 SPF)
Битовая глубина : 16 бит
Метод сжатия : С потерями
Размер потока : 165 Мбайт (5%)
Заголовок : MVO
Язык : Russian
ServiceKind/String : Complete Main
Default : Да
Forced : Нет
Аудио #2
Идентификатор : 3
Формат : AC-3
Формат/Информация : Audio Coding 3
Коммерческое название : Dolby Digital
Идентификатор кодека : A_AC3
Продолжительность : 1 ч. 29 м.
Вид битрейта : Постоянный
Битрейт : 384 Кбит/сек
Каналы : 6 каналов
Channel layout : L R C LFE Ls Rs
Частота : 48,0 КГц
Частота кадров : 31,250 кадров/сек (1536 SPF)
Битовая глубина : 16 бит
Метод сжатия : С потерями
Размер потока : 247 Мбайт (7%)
Заголовок : Original
Язык : English
ServiceKind/String : Complete Main
Default : Нет
Forced : Нет
Текст
Идентификатор : 4
Формат : UTF-8
Идентификатор кодека : S_TEXT/UTF8
Идентификатор кодека/Информация : UTF-8 Plain Text
Язык : English
Default : Нет
Forced : Нет
Меню
00:00:00.000 : en:1
00:05:54.000 : en:2
00:11:45.000 : en:3
00:17:41.000 : en:4
00:23:29.000 : en:5
00:29:21.000 : en:6
00:35:22.000 : en:7
00:41:08.000 : en:8
00:47:13.000 : en:9
00:52:30.000 : en:10
00:58:42.000 : en:11
01:04:38.000 : en:12
01:10:27.000 : en:13
01:15:55.000 : en:14
01:21:59.000 : en:15
01:28:10.000 : en:16
Скриншоты:
Скачать

Скачать торрент!

Как скачивать? · Что такое торрент? · Рейтинг и ограничения

Сайт не распространяет и не хранит электронные версии произведений, а лишь предоставляет доступ к создаваемому пользователями каталогу ссылок на торрент-файлы, которые содержат только списки хеш-сумм

загрузка...

_________________
ПУСТЬ ВАС НЕ СМУЩАЕТ ОТСУТСТВИЕ СИДОВ НА МОИХ РАЗДАЧАХ, РАЗДАЧИ МУЛЬТИТРЕКЕРНЫЕ СИДЫ (Раздающие) по DHT ЕСТЬ ВСЕГДА !!!!
[Профиль] [ЛС]
Показать сообщения:    
Ответить на тему

Текущее время: Сегодня 00:49

Часовой пояс: GMT + 4



Вы не можете начинать темы
Вы не можете отвечать на сообщения
Вы не можете редактировать свои сообщения
Вы не можете удалять свои сообщения
Вы не можете голосовать в опросах
Вы не можете прикреплять файлы к сообщениям
Вы не можете скачивать файлы