Снегоуборщик / Cold Pursuit (2019) UHD BDRemux [H.265/2160p] [4K, HDR, 10-bit]

Ответить на тему
 
Автор Сообщение

Magnat ®

Пол:

Стаж: 4 года 1 месяц

Сообщений: 420

Откуда: xxxtorrents.pro

Пост Пост: #1 от 11-Май-2019 21:30

[Цитировать]

Снегоуборщик / Cold Pursuit«Он убирает снег и… наркодилеров»- Производство: Великобритания, Норвегия, Канада, США, Франция / Mas Films, Paradox Films, StudioCanal
Жанр: Боевик, триллер, драма, криминал
Режиссер: Ханс Петтер Муланд
Продюсер: Финн Гьердрум, Майкл Шамберг, Амит Шукла
Актеры: Лиам Нисон, Лора Дерн, Эмми Россам, Том Бейтман, Уильям Форсайт,
Джулия Джонс, Майкл Нисон, Майкл Эклунд, Брэдли Страйкер, Уэсли МакИннес-Мистер Коксман — примерный семьянин и уважаемый гражданин, размеренная жизнь которого заканчивается,
когда наркоторговцы убивают его сына.
В поисках справедливости он с ледяным хладнокровием начинает изощренно убирать бандитов одного за другим.
Возраст: 18+ (зрителям, достигшим 18 лет. запрещено для детей)
Рейтинг MPAA: R (лицам до 17 лет обязательно присутствие взрослого)
Дата мировой премьеры: 7 февраля 2019
Дата российской премьеры: 7 февраля 2019, «MEGOGO Distribution»
Цифровой релиз: 6 мая 2019, «Megogo Distribution»
Продолжительность: 01:59:00
Качество: UHD BDRemux (HDR)
Перевод: Дублированный (iTunes), Профессиональный (многоголосый, закадровый)
Субтитры: Русские, английские
Видео: H.265/HEVC, 3840x2160, (16:9), 62 Mbps, 23.976 fps
Аудио 1: AC3, 6 ch, 384 kbps - Русский (iTunes)
Аудио 2: AC3, 2 ch, 192 kbps - Русский (MVO, CВ Студия)
Аудио 3: TrueHD, 8 ch, 3955 kbps - Английский
Аудио 4: AC3, 6 ch, 640 kbps - Английский

Mediainfo:

General
Unique ID : 7132842674041701990935143733469024447 (0x55DBC4BA88630E31FA8EF51693290BF)
Complete name : S:\Cold.Pursuit.2019.BDREMUX.2160p.HDR.seleZen.mkv
Format : Matroska
Format version : Version 4
File size : 55.9 GiB
Duration : 1 h 59 min
Overall bit rate mode : Variable
Overall bit rate : 67.2 Mb/s
Movie name : Cold Pursuit 4K 2019 from селезень
Encoded date : UTC 2019-05-09 20:53:01
Writing application : mkvmerge v32.0.0 ('Astral Progressions') 64-bit
Writing library : libebml v1.3.7 + libmatroska v1.5.0
Video
ID : 1
Format : HEVC
Format/Info : High Efficiency Video Coding
Format profile : Main [url=mailto:10@L5.1]10@L5.1[/url]@High
HDR format : SMPTE ST 2086, HDR10 compatible
Codec ID : V_MPEGH/ISO/HEVC
Duration : 1 h 59 min
Bit rate : 62.0 Mb/s
Width : 3 840 pixels
Height : 2 160 pixels
Display aspect ratio : 16:9
Frame rate mode : Constant
Frame rate : 23.976 (24000/1001) FPS
Color space : YUV
Chroma subsampling : 4:2:0 (Type 2)
Bit depth : 10 bits
Bits/(Pixel*Frame) : 0.312
Stream size : 51.5 GiB (92%)
Language : English
Default : Yes
Forced : No
Color range : Limited
Color primaries : BT.2020
Transfer characteristics : PQ
Matrix coefficients : BT.2020 non-constant
Mastering display color pri : Display P3
Mastering display luminance : min: 0.0001 cd/m2, max: 1000 cd/m2
Maximum Content Light Level : 1000 cd/m2
Maximum Frame-Average Light : 288 cd/m2
Audio #1
ID : 2
Format : AC-3
Format/Info : Audio Coding 3
Commercial name : Dolby Digital
Codec ID : A_AC3
Duration : 1 h 58 min
Bit rate mode : Constant
Bit rate : 384 kb/s
Channel(s) : 6 channels
Channel layout : L R C LFE Ls Rs
Sampling rate : 48.0 kHz
Frame rate : 31.250 FPS (1536 SPF)
Bit depth : 16 bits
Compression mode : Lossy
Stream size : 327 MiB (1%)
Title : iTunes
Language : Russian
Service kind : Complete Main
Default : Yes
Forced : Yes
Audio #2
ID : 3
Format : AC-3
Format/Info : Audio Coding 3
Commercial name : Dolby Digital
Codec ID : A_AC3
Duration : 1 h 58 min
Bit rate mode : Constant
Bit rate : 192 kb/s
Channel(s) : 2 channels
Channel layout : L R
Sampling rate : 48.0 kHz
Frame rate : 31.250 FPS (1536 SPF)
Bit depth : 16 bits
Compression mode : Lossy
Stream size : 163 MiB (0%)
Title : MVO [CВ Студия]
Language : Russian
Service kind : Complete Main
Default : No
Forced : No
Audio #3
ID : 4
Format : MLP FBA 16-ch
Format/Info : Meridian Lossless Packing FBA with 16-channel presentation
Commercial name : Dolby TrueHD with Dolby Atmos
Codec ID : A_TRUEHD
Duration : 1 h 59 min
Bit rate mode : Variable
Bit rate : 3 955 kb/s
Maximum bit rate : 6 264 kb/s
Channel(s) : 8 channels
Channel layout : L R C LFE Ls Rs Lb Rb
Sampling rate : 48.0 kHz
Frame rate : 1 200.000 FPS (40 SPF)
Compression mode : Lossless
Stream size : 3.29 GiB (6%)
Title : Original
Language : English
Default : No
Forced : No
Number of dynamic objects : 15
Bed channel count : 1 channel
Bed channel configuration : LFE
Audio #4
ID : 5
Format : AC-3
Format/Info : Audio Coding 3
Commercial name : Dolby Digital
Codec ID : A_AC3
Duration : 1 h 59 min
Bit rate mode : Constant
Bit rate : 640 kb/s
Channel(s) : 6 channels
Channel layout : L R C LFE Ls Rs
Sampling rate : 48.0 kHz
Frame rate : 31.250 FPS (1536 SPF)
Bit depth : 16 bits
Compression mode : Lossy
Stream size : 545 MiB (1%)
Language : English
Service kind : Complete Main
Default : No
Forced : No
Text #1
ID : 6
Format : UTF-8
Codec ID : S_TEXT/UTF8
Codec ID/Info : UTF-8 Plain Text
Duration : 1 h 49 min
Bit rate : 62 b/s
Count of elements : 979
Stream size : 50.3 KiB (0%)
Title : Full
Language : Russian
Default : No
Forced : No
Text #2
ID : 7
Format : UTF-8
Codec ID : S_TEXT/UTF8
Codec ID/Info : UTF-8 Plain Text
Duration : 1 h 47 min
Bit rate : 40 b/s
Count of elements : 968
Stream size : 31.9 KiB (0%)
Language : English
Default : No
Forced : No
Menu
00:00:00.000 : en:Chapter 01
00:07:26.946 : en:Chapter 02
00:13:19.257 : en:Chapter 03
00:21:35.211 : en:Chapter 04
00:29:35.649 : en:Chapter 05
00:38:18.880 : en:Chapter 06
00:45:11.876 : en:Chapter 07
00:53:08.310 : en:Chapter 08
01:01:23.513 : en:Chapter 09
01:05:46.359 : en:Chapter 10
01:14:04.857 : en:Chapter 11
01:22:21.186 : en:Chapter 12
01:31:40.954 : en:Chapter 13
01:38:46.879 : en:Chapter 14
01:45:20.940 : en:Chapter 15
01:47:43.540 : en:Chapter 16[/pre]

Дополнительная информация:

Диск на Blu-ray.com
Скриншоты:
Скачать

Скачать торрент!

Как скачивать? · Что такое торрент? · Рейтинг и ограничения

Сайт не распространяет и не хранит электронные версии произведений, а лишь предоставляет доступ к создаваемому пользователями каталогу ссылок на торрент-файлы, которые содержат только списки хеш-сумм

загрузка...

_________________
ПУСТЬ ВАС НЕ СМУЩАЕТ ОТСУТСТВИЕ СИДОВ НА МОИХ РАЗДАЧАХ, РАЗДАЧИ МУЛЬТИТРЕКЕРНЫЕ СИДЫ (Раздающие) по DHT ЕСТЬ ВСЕГДА !!!!
[Профиль] [ЛС]
Показать сообщения:    
Ответить на тему

Текущее время: Сегодня 06:47

Часовой пояс: GMT + 4



Вы не можете начинать темы
Вы не можете отвечать на сообщения
Вы не можете редактировать свои сообщения
Вы не можете удалять свои сообщения
Вы не можете голосовать в опросах
Вы не можете прикреплять файлы к сообщениям
Вы не можете скачивать файлы