Гладиатор / Gladiator (2000) UHD BDRemux [H.265/2160p] [4K, HDR, 10-bit] [Расширенная версия]

Ответить на тему
 
Автор Сообщение

Magnat ®

Пол:

Стаж: 5 лет 3 месяца

Сообщений: 420

Откуда: xxxtorrents.pro

Пост Пост: #1 от 11-Май-2019 21:29

[Цитировать]

Гладиатор / Gladiator«Генерал, ставший рабом. Раб, ставший гладиатором. Гладиатор, бросивший вызов империи»- Производство: США, Великобритания / Universal Pictures
Жанр: боевик, драма, приключения
Режиссер: Ридли Скотт
Продюсер: Дэвид Францони, Бранко Лустиг, Дуглас Уик
Актеры: Рассел Кроу, Хоакин Феникс, Конни Нильсен, Оливер Рид, Ричард Харрис, Дерек Джекоби, Джимон Хонсу, Дэвид Скофилд, Джон Шрэпнел, Томас Арана-В великой Римской империи не было военачальника, равного генералу Максимусу.
Непобедимые легионы, которыми командовал этот благородный воин, боготворили его и могли последовать за ним даже в ад.
Но случилось так, что отважный Максимус, готовый сразиться с любым противником в честном бою,
оказался бессилен против вероломных придворных интриг.
Генерала предали и приговорили к смерти. Чудом избежав гибели, Максимус становится гладиатором.
Быстро снискав себе славу в кровавых поединках, он оказывается в знаменитом римском Колизее,
на арене которого он встретится в смертельной схватке со своим заклятым врагом…
Возраст: 16+ (зрителям, достигшим 16 лет)
Рейтинг MPAA: R (лицам до 17 лет обязательно присутствие взрослого)

Продолжительность: 02:50:56
Качество: UHD BDRemux (HDR)
Перевод: Дублированный (Лицензия EUR), Профессиональный многоголосый (Телеканал «Интер»), Авторский (А.Гаврилов, Визгунов)
Субтитры: Русские, Английские
Видео: H.265/HEVC, 3840x2160, (16:9), 43.3 Mbps, 23.976 fps
Аудио 1: DTS, 6 ch, 768 kbps - Русский, Дубляж
Аудио 2: DTS-HD MA, 6 ch, 4394 kbps - Русский, Телеканал «Интер»
Аудио 3: DTS-HD MA, 6 ch, 4385 kbps - Русский, А.Гаврилов
Аудио 4: AC3, 6 ch, 448 kbps - Русский, Визгунов
Аудио 5: DTS:X MA, 8 ch, 3850 kbps - Английский
Диск на Blu-ray.com

Mediainfo:

General
Unique ID : 235810179070347658527705569666018035851 (0xB167637525F15280AE0DB52AB467C88B)
Complete name : F:\Видосики\Gladiator.2000.Extended.hdR.remuX.216Op.mkv
Format : Matroska
Format version : Version 2
File size : 68.2 GiB
Duration : 2 h 50 min
Overall bit rate : 57.1 Mb/s
Movie name : Gladiator Extended 4K 2000 от werecut'a
Encoded date : UTC 2018-04-26 12:03:11
Writing application : mkvmerge v2.9.9 ('Tutu') built on Nov 25 2009 21:13:32
Writing library : libebml v0.7.9 + libmatroska v0.8.1
Video
ID : 1
Format : HEVC
Format/Info : High Efficiency Video Coding
Commercial name : HDR10
Format profile : Main [url=mailto:10@L5.1]10@L5.1[/url]@High
Codec ID : V_MPEGH/ISO/HEVC
Duration : 2 h 50 min
Width : 3 840 pixels
Height : 2 160 pixels
Display aspect ratio : 16:9
Frame rate mode : Constant
Frame rate : 23.976 (24000/1001) FPS
Color space : YUV
Chroma subsampling : 4:2:0 (Type 2)
Bit depth : 10 bits
Language : English
Default : No
Forced : No
Color range : Limited
Color primaries : BT.2020
Transfer characteristics : PQ
Matrix coefficients : BT.2020 non-constant
Mastering display color pri : BT.709
Mastering display luminance : min: 0.0050 cd/m2, max: 1000 cd/m2
Maximum Content Light Level : 1000 cd/m2
Maximum Frame-Average Light : 497 cd/m2
Audio #1
ID : 2
Format : DTS
Format/Info : Digital Theater Systems
Codec ID : A_DTS
Duration : 2 h 50 min
Bit rate mode : Constant
Bit rate : 768 kb/s
Channel(s) : 6 channels
Channel positions : Front: L C R, Side: L R, LFE
Sampling rate : 48.0 kHz
Frame rate : 93.750 FPS (512 SPF)
Bit depth : 24 bits
Compression mode : Lossy
Delay relative to video : 11 ms
Stream size : 939 MiB (1%)
Language : Russian
Default : Yes
Forced : Yes
Audio #2
ID : 3
Format : DTS
Format/Info : Digital Theater Systems
Format profile : MA / Core
Codec ID : A_DTS
Duration : 2 h 50 min
Bit rate mode : Variable / Constant
Bit rate : Unknown / 1 509 kb/s
Channel(s) : 6 channels
Channel positions : Front: L C R, Side: L R, LFE
Sampling rate : 48.0 kHz
Frame rate : 93.750 FPS (512 SPF)
Bit depth : 24 bits
Compression mode : Lossless / Lossy
Language : Russian
Default : No
Forced : No
Audio #3
ID : 4
Format : DTS
Format/Info : Digital Theater Systems
Format profile : MA / Core
Codec ID : A_DTS
Duration : 2 h 50 min
Bit rate mode : Variable / Constant
Bit rate : Unknown / 1 509 kb/s
Channel(s) : 6 channels
Channel positions : Front: L C R, Side: L R, LFE
Sampling rate : 48.0 kHz
Frame rate : 93.750 FPS (512 SPF)
Bit depth : 24 bits
Compression mode : Lossless / Lossy
Language : Russian
Default : No
Forced : No
Audio #4
ID : 5
Format : AC-3
Format/Info : Audio Coding 3
Codec ID : A_AC3
Duration : 2 h 50 min
Bit rate mode : Constant
Bit rate : 448 kb/s
Channel(s) : 6 channels
Channel positions : Front: L C R, Side: L R, LFE
Sampling rate : 48.0 kHz
Frame rate : 31.250 FPS (1536 SPF)
Bit depth : 16 bits
Compression mode : Lossy
Stream size : 548 MiB (1%)
Language : Russian
Service kind : Complete Main
Default : No
Forced : No
Audio #5
ID : 6
Format : DTS
Format/Info : Digital Theater Systems
Format profile : X / MA / Core
Codec ID : A_DTS
Bit rate mode : Variable / Variable / Constant
Bit rate : Unknown / Unknown / 1 509 kb/s
Channel(s) : Object Based / 8 channels / 6 channels
Channel positions : Object Based / Front: L C R, Side: L R, Back: L R, LFE / Front: L C R, Side: L R, LFE
Sampling rate : / 48.0 kHz / 48.0 kHz
Frame rate : 93.750 FPS (512 SPF)
Bit depth : / 24 bits / 24 bits
Compression mode : / Lossless / Lossy
Language : English
Default : No
Forced : No
Text #1
ID : 7
Format : UTF-8
Codec ID : S_TEXT/UTF8
Codec ID/Info : UTF-8 Plain Text
Language : Russian
Default : No
Forced : No
Text #2
ID : 8
Format : UTF-8
Codec ID : S_TEXT/UTF8
Codec ID/Info : UTF-8 Plain Text
Language : English
Default : No
Forced : No
Text #3
ID : 9
Format : UTF-8
Codec ID : S_TEXT/UTF8
Codec ID/Info : UTF-8 Plain Text
Language : English
Default : No
Forced : No
Menu
00:00:00.000 : :Far From Home (Main Title)
00:07:14.308 : :Hell Unleashed
00:12:51.103 : :You Have Missed the War
00:18:45.791 : :A Pleasant Fiction
00:23:30.325 : :One More Duty
00:32:59.394 : :You Will Not Be Emperor
00:37:35.878 : :Hail Caesar
00:40:51.740 : :A Soldier's Death
00:47:33.725 : :Mark of the Legion
00:51:36.843 : :Gladiators, I Salute You
00:55:45.383 : :Battle in Chains
01:02:22.280 : :The Greatness of Rome
01:09:57.985 : :Win the Crowd
01:19:09.286 : :I Shall Cheer for You
01:29:22.648 : :The Battle of Carthage
01:37:12.785 : :My Name Is Gladiator
01:41:36.798 : :Terribly Vexed
01:51:59.837 : :A Man for the People
01:56:37.281 : :Maximus the Merciful
02:00:44.487 : :You Simply Won't Die
02:04:43.225 : :The Last Wish of a Dying Man
02:12:20.015 : :I'm an Entertainer
02:13:33.588 : :Busy Little Bee
02:24:16.439 : :Shadows and Dust
02:28:49.670 : :Am I Not Merciful
02:34:21.752 : :Death Smiles at Us All
02:38:44.556 : :Home Again
02:42:58.727 : :Now We Are Free
Скриншоты:
Скачать

Скачать торрент! Гладиатор / Gladiator (2000) UHD BDRemux [H.265/2160p] [4K, HDR, 10-bit] [Расширенная версия]

Как скачивать? · Что такое торрент? · Рейтинг и ограничения

Сайт не распространяет и не хранит электронные версии произведений, а лишь предоставляет доступ к создаваемому пользователями каталогу ссылок на торрент-файлы, которые содержат только списки хеш-сумм

загрузка...

_________________
ПУСТЬ ВАС НЕ СМУЩАЕТ ОТСУТСТВИЕ СИДОВ НА МОИХ РАЗДАЧАХ, РАЗДАЧИ МУЛЬТИТРЕКЕРНЫЕ СИДЫ (Раздающие) по DHT ЕСТЬ ВСЕГДА !!!!
[Профиль] [ЛС]
Показать сообщения:    
Ответить на тему

Текущее время: Сегодня 19:07

Часовой пояс: GMT + 4



Вы не можете начинать темы
Вы не можете отвечать на сообщения
Вы не можете редактировать свои сообщения
Вы не можете удалять свои сообщения
Вы не можете голосовать в опросах
Вы не можете прикреплять файлы к сообщениям
Вы не можете скачивать файлы