Трёхгрошовый фильм / Dreigroschenfilm (2018) WEB-DLRip [H.264/720p-LQ] [MVO] [AD]

Ответить на тему
 
Автор Сообщение

Magnat ®

Пол:

Стаж: 5 лет 3 месяца

Сообщений: 420

Откуда: xxxtorrents.pro

Пост Пост: #1 от 11-Май-2019 21:20

[Цитировать]

Трёхгрошовый фильм / Dreigroschenfilm«Watch the master direct reality»- Производство: Германия, Бельгия / Zeitsprung Pictures, arte, Velvet Films, Südwestrundfunk (SWR)
Жанр: Драма
Режиссер: Йоахим Ланг
Актеры: Нойс Ноер, Джесси Альберт, Пери Баумейстер, Кристиан Брончарт, Генри Бухманн, Маркус Кэлвин, Дик Карлиер, Труус де Бур, Соете де Даппер, Том де Вриз-Вопреки всему «Трёхгрошовая опера» Бертольда Брехта обретает феноменальный успех. Киноиндустрия хочет сделать экранизацию этой «пьесы с музыкой». Но Брехт отказывается играть по их правилам. В то время как студия планирует подвергнуть цензуре всю «грязь» в фильме, автор хочет показать минусы капитализма в форме конфликта между Мэкки-Ножом, лондонским гангстером, и господином Пичемом, главой мафии уличных попрошаек. Фильм, который так и не вышел в том виде, в каком его задумал сам Бертольт Брехт. Провокационный, невероятно красочный фильм, где художник бросает вызов киноиндустрии и зрителям в равной степени.
Дата мировой премьеры: 13 сентября 2018
Продолжительность: 02:10:36
Качество видео: WEB-DLRip
Перевод: Многоголосый закадровый, профессиональный (Синема УС)
Субтитры: Русские (хардсаб на песни)
Видео: AVC/H.264, 1280x532 (2.40:1), ~6610 Kbps, 23,976 fps
Аудио: AC3, 2 ch, 448 Kbps - Русский

Mediainfo:

Общее
Уникальный идентификатор : 248671731745718308057785359961518312975 (0xBB146EF6865D72B3904EEF1CEAE10E0F)
Полное имя : /Users/Dreigroschenfilm.2018.BDRip.720p.mkv
Формат : Matroska
Версия формата : Version 2
Размер файла : 6,44 Гбайт
Продолжительность : 2 ч. 10 м.
Режим общего битрейта : Переменный
Общий поток : 7060 Кбит/сек
Дата кодирования : UTC 2019-04-28 13:52:09
Программа кодирования : mkvmerge v8.3.0 ('Over the Horizon') 64bit
Библиотека кодирования : libebml v1.3.1 + libmatroska v1.4.2
Видео
Идентификатор : 1
Формат : AVC
Формат/Информация : Advanced Video Codec
Профиль формата : [url=mailto:High@L4.1]High@L4.1[/url]
Настройки формата : CABAC / 4 Ref Frames
Параметр CABAC формата : Да
Параметр ReFrames формата : 4 кадра
Идентификатор кодека : V_MPEG4/ISO/AVC
Продолжительность : 2 ч. 10 м.
Вид битрейта : Переменный
Битрейт : 6610 Кбит/сек
Максимальный битрейт : 7500 Кбит/сек
Ширина : 1280 пикселей
Высота : 532 пикселя
Соотношение сторон : 2,40:1
Режим частоты кадров : Постоянный
Частота кадров : 23,976 (24000/1001) кадра/сек
Стандарт вещания : Component
Цветовое пространство : YUV
Субдискретизация насыщенности : 4:2:0
Битовая глубина : 8 бит
Тип развёртки : Прогрессивная
Бит/(Пиксели*Кадры) : 0.405
Размер потока : 6,03 Гбайт (94%)
Default : Да
Forced : Нет
Цветовой диапазон : Limited
Основные цвета : BT.709
Характеристики трансфера : BT.709
Коэффициенты матрицы : BT.709
Аудио
Идентификатор : 2
Формат : AC-3
Формат/Информация : Audio Coding 3
Коммерческое название : Dolby Digital
Идентификатор кодека : A_AC3
Продолжительность : 2 ч. 10 м.
Вид битрейта : Постоянный
Битрейт : 448 Кбит/сек
Каналы : 2 канала
Channel layout : L R
Частота : 48,0 КГц
Частота кадров : 31,250 кадров/сек (1536 SPF)
Битовая глубина : 16 бит
Метод сжатия : С потерями
Размер потока : 418 Мбайт (6%)
Service kind : Complete Main
Default : Да
Forced : Нет
Скриншоты:
Скачать

Скачать торрент! Трёхгрошовый фильм / Dreigroschenfilm (2018) WEB-DLRip [H.264/720p-LQ] [MVO] [AD]

Как скачивать? · Что такое торрент? · Рейтинг и ограничения

Сайт не распространяет и не хранит электронные версии произведений, а лишь предоставляет доступ к создаваемому пользователями каталогу ссылок на торрент-файлы, которые содержат только списки хеш-сумм

загрузка...

_________________
ПУСТЬ ВАС НЕ СМУЩАЕТ ОТСУТСТВИЕ СИДОВ НА МОИХ РАЗДАЧАХ, РАЗДАЧИ МУЛЬТИТРЕКЕРНЫЕ СИДЫ (Раздающие) по DHT ЕСТЬ ВСЕГДА !!!!
[Профиль] [ЛС]
Показать сообщения:    
Ответить на тему

Текущее время: Сегодня 16:54

Часовой пояс: GMT + 4



Вы не можете начинать темы
Вы не можете отвечать на сообщения
Вы не можете редактировать свои сообщения
Вы не можете удалять свои сообщения
Вы не можете голосовать в опросах
Вы не можете прикреплять файлы к сообщениям
Вы не можете скачивать файлы