Стикс / Styx (2018) WEB-DL 1080p | HDRezka Studio

Ответить на тему
 
Автор Сообщение

Magnat ®

Пол:

Стаж: 5 лет 4 месяца

Сообщений: 420

Откуда: xxxtorrents.pro

Пост Пост: #1 от 11-Май-2019 21:17

[Цитировать]

Стикс / Styx- Оригинальное название: Styx
Год выпуска: 2018
Жанр: Драма
Режиссер: Вольфганг Фишер
В ролях: Сюзанна Вольф, Гедион Одуор Уекеса, Кельвин Мутуку Ндинда, Инга Биркенфелд, Александр Байер, Доминик Бёт, Аника Менгер, Марио Манджион, Крис Спитери, Чарли Галеа-Рике 40, по профессии она врач скорой помощи. Собираясь в отпуск, она загружает всем необходимым собственную небольшую парусную яхту и берёт курс на остров Вознесения, предвкушая тишину и покой. Однажды Рики замечает из окна рыболовецкий траулер. Попытка выйти на связь с судном оказывается безуспешной. Однако ситуация и без того ясна: на палубе масса людей, они кричат и машут, пытаясь всячески привлечь её внимание, а некоторые прыгают в воду явно в надежде доплыть до неё. Рики понимает, что корабль потерпел крушение. Она связывается с береговой погранслужбой, и ей обещают выслать спасательное судно, настоятельно советуя при этом продолжать свой путь. Но Рики решает дождаться прибытия службы спасения.
Выпущено: Германия, Австрия, Schiwago Film, Amour Fou Vienna, Westdeutscher Rundfunk
Продолжительность: 01:34:34
Перевод: Профессиональный (многоголосый, закадровый) | HDRezka Studio
Качество: WEB-DL 1080p
Контейнер: MKV
Видео: MPEG-4 AVC, 1920х1036, 5119 Кбит/с
Аудио 1: Русский: AC3, 2 ch, 192 Кбит/с - HDRezka Studio
Аудио 2: Английский: AC3, 6 ch, 384 Кбит/с - Original
Субтитры: Английские

Скриншоты


MediaInfo

General
Unique ID : 66103730980725744817627864077904033636 (0x31BB1D90F5854642288D10B72ED6B764)
Complete name : G:Styx.2018.WEB-DL.1080p.mkv
Format : Matroska
Format version : Version 4 / Version 2
File size : 3.76 GiB
Duration : 1 h 34 min
Overall bit rate : 5 697 kb/s
Encoded date : UTC 2019-04-30 15:59:15
Writing application : mkvmerge v20.0.0 ('I Am The Sun') 64-bit
Writing library : libebml v1.3.5 + libmatroska v1.4.8
Video
ID : 1
Format : AVC
Format/Info : Advanced Video Codec
Format profile : High@L4
Format settings : CABAC / 4 Ref Frames
Format settings, CABAC : Yes
Format settings, RefFrames : 4 frames
Codec ID : V_MPEG4/ISO/AVC
Duration : 1 h 34 min
Bit rate : 5 119 kb/s
Width : 1 920 pixels
Height : 1 036 pixels
Display aspect ratio : 1.85:1
Frame rate mode : Constant
Frame rate : 24.000 FPS
Color space : YUV
Chroma subsampling : 4:2:0
Bit depth : 8 bits
Scan type : Progressive
Bits/(Pixel*Frame) : 0.107
Stream size : 3.38 GiB (90%)
Language : English
Default : Yes
Forced : No
Color range : Limited
Color primaries : BT.709
Transfer characteristics : BT.709
Matrix coefficients : BT.709
Audio #1
ID : 2
Format : AC-3
Format/Info : Audio Coding 3
Codec ID : A_AC3
Duration : 1 h 34 min
Bit rate mode : Constant
Bit rate : 192 kb/s
Channel(s) : 2 channels
Channel positions : Front: L R
Sampling rate : 48.0 kHz
Frame rate : 31.250 FPS (1536 SPF)
Bit depth : 16 bits
Compression mode : Lossy
Stream size : 130 MiB (3%)
Title : MVO, HDRezka Studio
Language : Russian
Service kind : Complete Main
Default : Yes
Forced : No
Audio #2
ID : 3
Format : AC-3
Format/Info : Audio Coding 3
Codec ID : A_AC3
Duration : 1 h 34 min
Bit rate mode : Constant
Bit rate : 384 kb/s
Channel(s) : 6 channels
Channel positions : Front: L C R, Side: L R, LFE
Sampling rate : 48.0 kHz
Frame rate : 31.250 FPS (1536 SPF)
Bit depth : 16 bits
Compression mode : Lossy
Stream size : 260 MiB (7%)
Language : English
Service kind : Complete Main
Default : No
Forced : No
Text
ID : 4
Format : UTF-8
Codec ID : S_TEXT/UTF8
Codec ID/Info : UTF-8 Plain Text
Duration : 2 min 6 s
Bit rate : 31 b/s
Count of elements : 20
Stream size : 498 Bytes (0%)
Language : English
Default : No
Forced : No
Скачать

Скачать торрент! Стикс / Styx (2018) WEB-DL 1080p | HDRezka Studio

Как скачивать? · Что такое торрент? · Рейтинг и ограничения

Сайт не распространяет и не хранит электронные версии произведений, а лишь предоставляет доступ к создаваемому пользователями каталогу ссылок на торрент-файлы, которые содержат только списки хеш-сумм

загрузка...

_________________
ПУСТЬ ВАС НЕ СМУЩАЕТ ОТСУТСТВИЕ СИДОВ НА МОИХ РАЗДАЧАХ, РАЗДАЧИ МУЛЬТИТРЕКЕРНЫЕ СИДЫ (Раздающие) по DHT ЕСТЬ ВСЕГДА !!!!
[Профиль] [ЛС]
Показать сообщения:    
Ответить на тему

Текущее время: Сегодня 20:57

Часовой пояс: GMT + 4



Вы не можете начинать темы
Вы не можете отвечать на сообщения
Вы не можете редактировать свои сообщения
Вы не можете удалять свои сообщения
Вы не можете голосовать в опросах
Вы не можете прикреплять файлы к сообщениям
Вы не можете скачивать файлы