Закат / Napszallta (2018) WEB-DLRip

Ответить на тему
 
Автор Сообщение

Magnat ®

Пол:

Стаж: 6 лет 4 месяца

Сообщений: 454

Откуда: Москва

Пост Пост: #1 от 11-Май-2019 20:35

[Цитировать]

Закат / Napszallta- Производство: Венгрия, Франция / Laokoon Filmgroup, Playtime Production, Hungarian National Film Fund
Жанр: Драма
Режиссер: Ласло Немеш
Актеры: Сюзанна Вуэст, Влад Иванов, Урс Рехн, Левенте Молнар, Эвелин Добош, Моника Бальшаи, Юли Якаб, Бьорн Фрайберг, Юдит Бардош, Золтан Цервак-1913 год, Будапешт, сердце Европы. Молодая полная решимости Ирис Лейтер приезжает в столицу Венгрии. Она пытается устроиться на работу в качестве модистки в легендарный шляпный магазин, который когда-то принадлежал ее покойным родителям. Новый владелец выгоняет бывшую наследницу, ставшую жертвой жестоких интриг. Ирис отказывается покинуть город и начинает собственное расследование тайн прошлого на темных улицах Будапешта в канун Первой мировой войны.
Возраст: 16+ (зрителям, достигшим 16 лет)
Рейтинг MPAA: R (лицам до 17 лет обязательно присутствие взрослого)
Дата мировой премьеры: 3 сентября 2018
Дата премьеры в России: 18 октября 2018
Цифровой релиз: 6 мая 2019

Продолжительность: 02:21:28
Качество видео: WEB-DLRip
Перевод: Профессиональный многоголосый (iTunes)
Субтитры: Отсутствуют
Видео: XviD, 720x400, ~1684 Kbps
Аудио: AC-3, 6 ch, 384 Kbps

MediaInfo:

Общее
Полное имя : C:\XX\Закат\Sunset 2018 WEB-DLRip.avi
Формат : AVI
Формат/Информация : Audio Video Interleave
Профиль формата : OpenDML
Размер файла : 2,06 Гбайт
Продолжительность : 2 ч. 21 м.
Общий поток : 2080 Кбит/сек
Программа кодирования : VirtualDubMod 1.5.10.3 | www.virtualdub-fr.org || (build 2550/release)
Библиотека кодирования : VirtualDubMod build 2550/release
Авторское право : ExKinoRay
Видео
Идентификатор : 0
Формат : MPEG-4 Visual
Профиль формата : Advanced Simple@L5
Настройки формата : BVOP1 / Custom Matrix
Параметр BVOP формата : 1
Параметр QPel формата : Нет
Параметр GMC формата : Без точки перехода
Параметр матрицы формата : Выборочная
Идентификатор кодека : XVID
Идентификатор кодека/Подсказка : XviD
Продолжительность : 2 ч. 21 м.
Битрейт : 1684 Кбит/сек
Ширина : 720 пикселей
Высота : 400 пикселей
Соотношение сторон : 16:9
Частота кадров : 24,000 кадра/сек
Цветовое пространство : YUV
Субдискретизация насыщенности : 4:2:0
Битовая глубина : 8 бит
Тип развёртки : Прогрессивная
Метод сжатия : С потерями
Бит/(Пиксели*Кадры) : 0.244
Размер потока : 1,66 Гбайт (81%)
Библиотека кодирования : XviD 73
Аудио
Идентификатор : 1
Формат : AC-3
Формат/Информация : Audio Coding 3
Коммерческое название : Dolby Digital
Идентификатор кодека : 2000
Продолжительность : 2 ч. 21 м.
Вид битрейта : Постоянный
Битрейт : 384 Кбит/сек
Каналы : 6 каналов
Channel layout : L R C LFE Ls Rs
Частота : 48,0 КГц
Частота кадров : 31,250 кадров/сек (1536 SPF)
Битовая глубина : 16 бит
Метод сжатия : С потерями
Размер потока : 389 Мбайт (18%)
Выравнивание : Разделение по промежуткам
Продолжительность промежутка : 42 мс. (1,00 видеокадр)
Время предзагрузки промежутка : 500 мс.
ServiceKind/String : Complete Main
Скриншоты:
Скачать

Скачать торрент! Закат / Napszallta (2018) WEB-DLRip

Как скачивать? · Что такое торрент? · Рейтинг и ограничения

Сайт не распространяет и не хранит электронные версии произведений, а лишь предоставляет доступ к создаваемому пользователями каталогу ссылок на торрент-файлы, которые содержат только списки хеш-сумм


_________________
ПУСТЬ ВАС НЕ СМУЩАЕТ ОТСУТСТВИЕ СИДОВ НА МОИХ РАЗДАЧАХ, РАЗДАЧИ МУЛЬТИТРЕКЕРНЫЕ СИДЫ (Раздающие) по DHT ЕСТЬ ВСЕГДА !!!!
[Профиль] [ЛС]
Показать сообщения:    
Ответить на тему

Текущее время: Сегодня 22:51

Часовой пояс: GMT + 4



Вы не можете начинать темы
Вы не можете отвечать на сообщения
Вы не можете редактировать свои сообщения
Вы не можете удалять свои сообщения
Вы не можете голосовать в опросах
Вы не можете прикреплять файлы к сообщениям
Вы не можете скачивать файлы