Мальчик по имени Парусник / A Boy Called Sailboat (2018) WEB-DL [H.264/1080p-LQ] [MVO]

Ответить на тему
 
Автор Сообщение

Magnat ®

Пол:

Стаж: 5 лет 3 месяца

Сообщений: 420

Откуда: xxxtorrents.pro

Пост Пост: #1 от 11-Май-2019 20:33

[Цитировать]

Мальчик по имени Парусник / A Boy Called Sailboat- Производство: США, Австралия / Yellow Brick Films, Sailboat Productions, iCandy Productions
Жанр: Драма, комедия, семейный
Режиссер: Камерон Наджент
Актеры: Дж. К. Симмонс, Джейк Бьюзи, Ноэль Гульеми, Лью Темпл, Бернард Керри, Лиза Де Радзо, Ник Фарнелл, Миранда Скерман, Патриция Калиш, Аддам Брамич-Драматическая комедия Мальчик по имени Парусник разворачивается вокруг самой обычной латиноамериканской семьи, которые всем сердцем верят в своего сына Парусника, питая на него огромные надежды. Этот мальчик, используя свою "маленькую гитарку" поведает нам просто удивительную историю о самой великой тайне в мире.
Дата мировой премьеры: 29 апреля 2018
Продолжительность: 01:26:25
Качество видео: WEB-DL
Перевод: Многоголосый закадровый, профессиональный (HDRezka Studio)
Субтитры: Английские
Видео: AVC/H.264, 1916х1036, ~5202 Kbps
Аудио #1: AC3, 2 ch, 192 Kbps - Русский
Аудио #2: AC3, 6 ch, 384 Kbps - Английский

MediaInfo:

Общее
Уникальный идентификатор : 109223902021516571124878581079125600132 (0x522BC2238705F47DEE6F530DD6F92784)
Полное имя : C:\XX\Мальчик по имени Парусник\A Boy Called Sailboat 2018 WEB-DL 1080p-LQ.mkv
Формат : Matroska
Версия формата : Version 4
Размер файла : 3,49 Гбайт
Продолжительность : 1 ч. 26 м.
Общий поток : 5780 Кбит/сек
Дата кодирования : UTC 2019-04-30 17:45:58
Программа кодирования : mkvmerge v20.0.0 ('I Am The Sun') 64-bit
Библиотека кодирования : libebml v1.3.5 + libmatroska v1.4.8
Видео
Идентификатор : 1
Формат : AVC
Формат/Информация : Advanced Video Codec
Профиль формата : High@L4
Настройки формата : CABAC / 4 Ref Frames
Параметр CABAC формата : Да
Параметр RefFrames формата : 4 кадра
Идентификатор кодека : V_MPEG4/ISO/AVC
Продолжительность : 1 ч. 26 м.
Битрейт : 5202 Кбит/сек
Ширина : 1916 пикселей
Высота : 1036 пикселей
Соотношение сторон : 1,85:1
Режим частоты кадров : Постоянный
Частота кадров : 23,976 (24000/1001) кадра/сек
Цветовое пространство : YUV
Субдискретизация насыщенности : 4:2:0
Битовая глубина : 8 бит
Тип развёртки : Прогрессивная
Бит/(Пиксели*Кадры) : 0.109
Размер потока : 3,14 Гбайт (90%)
Язык : English
Default : Да
Forced : Нет
Цветовой диапазон : Limited
Основные цвета : BT.709
Характеристики трансфера : BT.709
Коэффициенты матрицы : BT.709
Аудио #1
Идентификатор : 2
Формат : AC-3
Формат/Информация : Audio Coding 3
Коммерческое название : Dolby Digital
Идентификатор кодека : A_AC3
Продолжительность : 1 ч. 26 м.
Вид битрейта : Постоянный
Битрейт : 192 Кбит/сек
Каналы : 2 канала
Channel layout : L R
Частота : 48,0 КГц
Частота кадров : 31,250 кадров/сек (1536 SPF)
Битовая глубина : 16 бит
Метод сжатия : С потерями
Размер потока : 119 Мбайт (3%)
Заголовок : MVO HDRezka Studio
Язык : Russian
ServiceKind/String : Complete Main
Default : Да
Forced : Нет
Аудио #2
Идентификатор : 3
Формат : AC-3
Формат/Информация : Audio Coding 3
Коммерческое название : Dolby Digital
Идентификатор кодека : A_AC3
Продолжительность : 1 ч. 26 м.
Вид битрейта : Постоянный
Битрейт : 384 Кбит/сек
Каналы : 6 каналов
Channel layout : L R C LFE Ls Rs
Частота : 48,0 КГц
Частота кадров : 31,250 кадров/сек (1536 SPF)
Битовая глубина : 16 бит
Метод сжатия : С потерями
Размер потока : 237 Мбайт (7%)
Язык : English
ServiceKind/String : Complete Main
Default : Нет
Forced : Нет
Текст
Идентификатор : 4
Формат : UTF-8
Идентификатор кодека : S_TEXT/UTF8
Идентификатор кодека/Информация : UTF-8 Plain Text
Продолжительность : 1 ч. 22 м.
Битрейт : 54 бит/сек
ElementCount : 929
Размер потока : 32,9 Кбайт (0%)
Язык : English
Default : Нет
Forced : Нет
Меню
00:00:00.000 : en:Chapter 1
00:10:00.600 : en:Chapter 2
00:20:01.200 : en:Chapter 3
00:30:01.800 : en:Chapter 4
00:40:02.399 : en:Chapter 5
00:50:02.998 : en:Chapter 6
01:00:03.597 : en:Chapter 7
01:10:04.196 : en:Chapter 8
01:20:04.796 : en:Chapter 9
Скриншоты:
Скачать

Скачать торрент! Мальчик по имени Парусник / A Boy Called Sailboat (2018) WEB-DL [H.264/1080p-LQ] [MVO]

Как скачивать? · Что такое торрент? · Рейтинг и ограничения

Сайт не распространяет и не хранит электронные версии произведений, а лишь предоставляет доступ к создаваемому пользователями каталогу ссылок на торрент-файлы, которые содержат только списки хеш-сумм

загрузка...

_________________
ПУСТЬ ВАС НЕ СМУЩАЕТ ОТСУТСТВИЕ СИДОВ НА МОИХ РАЗДАЧАХ, РАЗДАЧИ МУЛЬТИТРЕКЕРНЫЕ СИДЫ (Раздающие) по DHT ЕСТЬ ВСЕГДА !!!!
[Профиль] [ЛС]
Показать сообщения:    
Ответить на тему

Текущее время: Сегодня 14:06

Часовой пояс: GMT + 4



Вы не можете начинать темы
Вы не можете отвечать на сообщения
Вы не можете редактировать свои сообщения
Вы не можете удалять свои сообщения
Вы не можете голосовать в опросах
Вы не можете прикреплять файлы к сообщениям
Вы не можете скачивать файлы