Разрушитель / Vargur (2018) HDRip [MVO] [AD]

Ответить на тему
 
Автор Сообщение

Magnat ®

Пол:

Стаж: 6 лет 4 месяца

Сообщений: 454

Откуда: Москва

Пост Пост: #1 от 11-Май-2019 19:35

[Цитировать]

Разрушитель / Vargur- Производство: Исландия, Дания, Швеция / RVK Studios
Жанр: Триллер, драма, криминал
Режиссер: Боркур Ситорсон
Актеры: Анна Прухняк, Ингвар Эггерт Сигюрдссон, Марьяна Янкович, Стейнюнн Оулина Торстейнсдоуттир, Гисли Орн Гардарссон, Балтазар Бреки Балтазарссон, Свеинн Олафур Гуннарссон, Рунар Фрейр Гисласон, Сигюрдюр Сигюрйоунссон-Два антагонистических героя-брата решили заняться контрабандой наркотиков в их родной стране — Исландии, используя молодую польскую девушку в качестве мула.
Дата мировой премьеры: 4 мая 2018
Продолжительность: 01:31:04
Качество видео: HDRip
Перевод: Многоголосый закадровый, профессиональный (Синема УС)
Субтитры: Отсутствуют
Видео: XviD, 720x304, ~1634 Kbps
Аудио: AC-3, 2 ch, 448 Kbps

MediaInfo:

Общее
Полное имя : C:\_\Разрушитель\Vargur 2018 HDRip.avi
Формат : AVI
Формат/Информация : Audio Video Interleave
Профиль формата : OpenDML
Размер файла : 1,33 Гбайт
Продолжительность : 1 ч. 31 м.
Общий поток : 2094 Кбит/сек
Видео
Идентификатор : 0
Формат : MPEG-4 Visual
Профиль формата : Advanced Simple@L5
Параметр BVOP формата : 2
Параметр QPel формата : Нет
Параметр GMC формата : Без точки перехода
Параметр матрицы формата : Выборочная
Идентификатор кодека : XVID
Идентификатор кодека/Подсказка : XviD
Продолжительность : 1 ч. 31 м.
Битрейт : 1634 Кбит/сек
Ширина : 720 пикселей
Высота : 304 пикселя
Соотношение сторон : 2,35:1
Частота кадров : 23,976 (24000/1001) кадра/сек
Цветовое пространство : YUV
Субдискретизация насыщенности : 4:2:0
Битовая глубина : 8 бит
Тип развёртки : Прогрессивная
Метод сжатия : С потерями
Бит/(Пиксели*Кадры) : 0.311
Размер потока : 1,04 Гбайт (78%)
Библиотека кодирования : XviD 1.2.1 (UTC 2008-12-04)
Аудио
Идентификатор : 1
Формат : AC-3
Формат/Информация : Audio Coding 3
Расширение режима : CM (complete main)
Параметр Endianness формата : Big
Идентификатор кодека : 2000
Продолжительность : 1 ч. 31 м.
Вид битрейта : Постоянный
Битрейт : 448 Кбит/сек
Каналы : 2 канала
Расположение каналов : Front: L R
Частота : 48,0 КГц
Частота кадров : 31,250 кадров/сек (1536 spf)
Метод сжатия : С потерями
Размер потока : 292 Мбайт (21%)
Выравнивание : Соединение по промежуткам
Продолжительность промежутка : 32 мс. (0,77 видеокадр)
Скриншоты:
Скачать

Скачать торрент! Разрушитель / Vargur (2018) HDRip [MVO] [AD]

Как скачивать? · Что такое торрент? · Рейтинг и ограничения

Сайт не распространяет и не хранит электронные версии произведений, а лишь предоставляет доступ к создаваемому пользователями каталогу ссылок на торрент-файлы, которые содержат только списки хеш-сумм


_________________
ПУСТЬ ВАС НЕ СМУЩАЕТ ОТСУТСТВИЕ СИДОВ НА МОИХ РАЗДАЧАХ, РАЗДАЧИ МУЛЬТИТРЕКЕРНЫЕ СИДЫ (Раздающие) по DHT ЕСТЬ ВСЕГДА !!!!
[Профиль] [ЛС]
Показать сообщения:    
Ответить на тему

Текущее время: Сегодня 22:01

Часовой пояс: GMT + 4



Вы не можете начинать темы
Вы не можете отвечать на сообщения
Вы не можете редактировать свои сообщения
Вы не можете удалять свои сообщения
Вы не можете голосовать в опросах
Вы не можете прикреплять файлы к сообщениям
Вы не можете скачивать файлы