Мисс Пуля / Miss Bala (2019) BDRemux [H.264/1080p]

Ответить на тему
 
Автор Сообщение

Magnat ®

Пол:

Стаж: 4 года 4 месяца

Сообщений: 420

Откуда: xxxtorrents.pro

Пост Пост: #1 от 11-Май-2019 19:33

[Цитировать]

Мисс Пуля / Miss Bala- Производство: Мексика, США, Canana Films, Misher Films, Sony Pictures Entertainment
Жанр: Боевик, триллер, драма
Режиссер: Кэтрин Хардвик
Продюсер: Энди Берман, Пабло Крус, Gareth Dunnet-Alcocer
Актеры: Джина Родригез, Томас Деккер, Vivian Chan, Барбарелла Пардо, Кристина Рольдо, Sebastián Cano, Gaby Orihuela, Дамиан Алькасар, Рикардо Абарка, Исмаэль Круз-Участница конкурса красоты Глория становится свидетельницей жестокой бандитской расправы и попадает в руки харизматичного наркобарона.
С помощью шантажа и угроз он использует отчаянную красавицу как пешку в своей игре против ЦРУ и УБН.
Рейтинг MPAA: PG-13 Детям до 13 просмотр не желателен
Дата мировой премьеры: 25 января 2019
Продолжительность: 01:43:58
Качество видео: BDRemux
Перевод: Многоголосый закадровый (iTunes)
Субтитры: Русские (forced, full), Украинские (full), Английские (full)
Видео: AVC/H.264, 1920x1080, 24.9 Mbps, 23.976 fps
Аудио 1: AC-3, 6 ch, 384 Kbps | Русский
Аудио 2: DTS-HD MA, 6 ch, 2220 Kbps | Английский

Mediainfo:

General
Unique ID : 172906203816616025556190763848569146244 (0x8214860760AF187CEB6E180B98C34B84)
Complete name : /Volumes/Promise/Miss.Bala.BDRemux.1080p.pk.mkv
Format : Matroska
Format version : Version 4
File size : 20.0 GiB
Duration : 1h 43mn
Overall bit rate mode : Variable
Overall bit rate : 27.5 Mbps
Movie name : Miss Bala BDRemux
Encoded date : UTC 2019-05-08 11:27:02
Writing application : mkvmerge v33.1.0 ('Primrose') 64-bit
Writing library : libebml v1.3.7 + libmatroska v1.5.0
Video
ID : 1
Format : AVC
Format/Info : Advanced Video Codec
Format profile : [url=mailto:High@L4.1]High@L4.1[/url]
Format settings : CABAC / 2 Ref Frames
Format settings, CABAC : Yes
Format settings, ReFrames : 2 frames
Format settings, GOP : M=1, N=10
Codec ID : V_MPEG4/ISO/AVC
Duration : 1h 43mn
Bit rate mode : Variable
Bit rate : 24.9 Mbps
Width : 1 920 pixels
Height : 1 080 pixels
Display aspect ratio : 16:9
Frame rate mode : Constant
Frame rate : 23.976 (24000/1001) fps
Color space : YUV
Chroma subsampling : 4:2:0
Bit depth : 8 bits
Scan type : Progressive
Bits/(Pixel*Frame) : 0.501
Stream size : 18.1 GiB (91%)
Language : English
Default : Yes
Forced : No
Audio #1
ID : 2
Format : AC-3
Format/Info : Audio Coding 3
Commercial name : Dolby Digital
Codec ID : A_AC3
Duration : 1h 43mn
Bit rate mode : Constant
Bit rate : 384 Kbps
Channel(s) : 6 channels
Channel layout : L R C LFE Ls Rs
Sampling rate : 48.0 KHz
Frame rate : 31.250 fps (1536 SPF)
Bit depth : 16 bits
Compression mode : Lossy
Stream size : 286 MiB (1%)
Title : Russian MVO iTunes
Language : Russian
Service kind : Complete Main
Default : Yes
Forced : Yes
Audio #2
ID : 3
Format : DTS XLL
Format/Info : Digital Theater Systems
Commercial name : DTS-HD Master Audio
Codec ID : A_DTS
Duration : 1h 43mn
Bit rate mode : Variable
Bit rate : 2 220 Kbps
Channel(s) : 6 channels
Channel layout : C L R Ls Rs LFE
Sampling rate : 48.0 KHz
Frame rate : 93.750 fps (512 SPF)
Bit depth : 16 bits
Compression mode : Lossless
Stream size : 1.61 GiB (8%)
Title : English Original
Language : English
Default : No
Forced : No
Text #1
ID : 4
Format : UTF-8
Codec ID : S_TEXT/UTF8
Codec ID/Info : UTF-8 Plain Text
Duration : 1h 40mn
Bit rate : 0 bps
Count of elements : 2
Stream size : 118 Bytes (0%)
Title : Russian forced
Language : Russian
Default : Yes
Forced : Yes
Text #2
ID : 5
Format : UTF-8
Codec ID : S_TEXT/UTF8
Codec ID/Info : UTF-8 Plain Text
Duration : 1h 42mn
Bit rate : 54 bps
Count of elements : 972
Stream size : 40.6 KiB (0%)
Title : Russianfull
Language : Russian
Default : No
Forced : No
Text #3
ID : 6
Format : UTF-8
Codec ID : S_TEXT/UTF8
Codec ID/Info : UTF-8 Plain Text
Duration : 1h 42mn
Bit rate : 53 bps
Count of elements : 971
Stream size : 39.9 KiB (0%)
Title : Ukrainian full
Language : Ukrainian
Default : No
Forced : No
Text #4
ID : 7
Format : UTF-8
Codec ID : S_TEXT/UTF8
Codec ID/Info : UTF-8 Plain Text
Duration : 1h 36mn
Bit rate : 35 bps
Count of elements : 951
Stream size : 24.9 KiB (0%)
Title : English full
Language : English
Default : No
Forced : No
Menu
00:00:00.000 : en:Chapter 01
00:05:31.706 : en:Chapter 02
00:12:15.777 : en:Chapter 03
00:17:39.600 : en:Chapter 04
00:24:00.439 : en:Chapter 05
00:27:02.621 : en:Chapter 06
00:35:19.034 : en:Chapter 07
00:41:09.801 : en:Chapter 08
00:46:20.236 : en:Chapter 09
00:55:58.021 : en:Chapter 10
00:59:22.768 : en:Chapter 11
01:03:48.950 : en:Chapter 12
01:09:17.945 : en:Chapter 13
01:20:28.741 : en:Chapter 14
01:25:28.373 : en:Chapter 15
01:30:06.610 : en:Chapter 16
Скриншоты:
Скачать

Скачать торрент!

Как скачивать? · Что такое торрент? · Рейтинг и ограничения

Сайт не распространяет и не хранит электронные версии произведений, а лишь предоставляет доступ к создаваемому пользователями каталогу ссылок на торрент-файлы, которые содержат только списки хеш-сумм

загрузка...

_________________
ПУСТЬ ВАС НЕ СМУЩАЕТ ОТСУТСТВИЕ СИДОВ НА МОИХ РАЗДАЧАХ, РАЗДАЧИ МУЛЬТИТРЕКЕРНЫЕ СИДЫ (Раздающие) по DHT ЕСТЬ ВСЕГДА !!!!
[Профиль] [ЛС]
Показать сообщения:    
Ответить на тему

Текущее время: Сегодня 00:45

Часовой пояс: GMT + 4



Вы не можете начинать темы
Вы не можете отвечать на сообщения
Вы не можете редактировать свои сообщения
Вы не можете удалять свои сообщения
Вы не можете голосовать в опросах
Вы не можете прикреплять файлы к сообщениям
Вы не можете скачивать файлы