Мастер Z: Наследие Ип Мана / Cheung Tin-Chi (Master Z: The Ip Man Legacy) (2018) BDRip [MVO]

Ответить на тему
 
Автор Сообщение

Magnat ®

Пол:

Стаж: 6 лет 4 месяца

Сообщений: 454

Откуда: Москва

Пост Пост: #1 от 10-Май-2019 15:40

[Цитировать]

Мастер Z: Наследие Ип Мана / Cheung Tin-Chi (Master Z: The Ip Man Legacy)- Производство: Китай, Гонконг / Mandarin Motion Pictures
Жанр: Боевик
Режиссер: Юэнь Ву-Пин
Актеры: Макс Чжан, Дэйв Батиста, Мишель Йео, Тони Джа, Крисси Чау, Кевин Чэн, Син Юй, Филип Кюн ...-Чун Тинь-Чи планирует вернуться к тихой мирной жизни. К такому решению мастера Z привело поражение в поединке с самим Ип Маном. Поражение лишило нашего героя бодрости духа, он даже задумывается над тем, чтобы бросить боевое искусство. Мастерство вин-чунь, которым он долгое время зарабатывал себе на хлеб, перестало утешать его самолюбие.
Однако, зло не дремлет. Местные бандиты, творящие беззаконие в городе, бросают вызов Чун Тинь-Чи и наследию великого мастера. После того, как мужчина проявил все свои знания в смелом бою с иностранцем Дэвидсоном, местные бандиты стали его уважать и относиться совсем по другому.
Дата мировой премьеры: 13 октября 2018
Продолжительность: 01:47:34
Качество видео: BDRip
Перевод: Многоголосый закадровый, профессиональный (HDrezka Studio)
Субтитры: Отсутствуют
Видео: XviD, 720x320, ~1628 Kbps
Аудио: AC-3, 2 ch, 192 Kbps

MediaInfo:

Общее
Полное имя : C:\XX\Мастер Z\Master Z 2018 BDRip.avi
Формат : AVI
Формат/Информация : Audio Video Interleave
Размер файла : 1,37 Гбайт
Продолжительность : 1 ч. 47 м.
Общий поток : 1829 Кбит/сек
Программа кодирования : VirtualDubMod 1.5.10.3 | www.virtualdub-fr.org || (build 2550/release)
Библиотека кодирования : VirtualDubMod build 2550/release
Авторское право : ExKinoRay
Видео
Идентификатор : 0
Формат : MPEG-4 Visual
Профиль формата : Advanced Simple@L5
Настройки формата : BVOP1 / Custom Matrix
Параметр BVOP формата : 1
Параметр QPel формата : Нет
Параметр GMC формата : Без точки перехода
Параметр матрицы формата : Выборочная
Идентификатор кодека : XVID
Идентификатор кодека/Подсказка : XviD
Продолжительность : 1 ч. 47 м.
Битрейт : 1628 Кбит/сек
Ширина : 720 пикселей
Высота : 320 пикселей
Соотношение сторон : 2,25:1
Частота кадров : 24,000 кадра/сек
Цветовое пространство : YUV
Субдискретизация насыщенности : 4:2:0
Битовая глубина : 8 бит
Тип развёртки : Прогрессивная
Метод сжатия : С потерями
Бит/(Пиксели*Кадры) : 0.294
Размер потока : 1,22 Гбайт (89%)
Библиотека кодирования : XviD 73
Аудио
Идентификатор : 1
Формат : AC-3
Формат/Информация : Audio Coding 3
Коммерческое название : Dolby Digital
Идентификатор кодека : 2000
Продолжительность : 1 ч. 47 м.
Вид битрейта : Постоянный
Битрейт : 192 Кбит/сек
Каналы : 2 канала
Channel layout : L R
Частота : 48,0 КГц
Частота кадров : 31,250 кадров/сек (1536 SPF)
Битовая глубина : 16 бит
Метод сжатия : С потерями
Размер потока : 148 Мбайт (10%)
Выравнивание : Разделение по промежуткам
Продолжительность промежутка : 42 мс. (1,00 видеокадр)
Время предзагрузки промежутка : 500 мс.
Заголовок : MVO (HDRezka Studio)
ServiceKind/String : Complete Main
Скриншоты:
Скачать

Скачать торрент! Мастер Z: Наследие Ип Мана / Cheung Tin-Chi (Master Z: The Ip Man Legacy) (2018) BDRip [MVO]

Как скачивать? · Что такое торрент? · Рейтинг и ограничения

Сайт не распространяет и не хранит электронные версии произведений, а лишь предоставляет доступ к создаваемому пользователями каталогу ссылок на торрент-файлы, которые содержат только списки хеш-сумм


_________________
ПУСТЬ ВАС НЕ СМУЩАЕТ ОТСУТСТВИЕ СИДОВ НА МОИХ РАЗДАЧАХ, РАЗДАЧИ МУЛЬТИТРЕКЕРНЫЕ СИДЫ (Раздающие) по DHT ЕСТЬ ВСЕГДА !!!!
[Профиль] [ЛС]
Показать сообщения:    
Ответить на тему

Текущее время: Сегодня 21:43

Часовой пояс: GMT + 4



Вы не можете начинать темы
Вы не можете отвечать на сообщения
Вы не можете редактировать свои сообщения
Вы не можете удалять свои сообщения
Вы не можете голосовать в опросах
Вы не можете прикреплять файлы к сообщениям
Вы не можете скачивать файлы