Воображаемая земля / A Land Imagined (2018) WEB-DL 1080p | HDRezka Studio

Ответить на тему
 
Автор Сообщение

Magnat ®

Пол:

Стаж: 5 лет 4 месяца

Сообщений: 420

Откуда: xxxtorrents.pro

Пост Пост: #1 от 10-Май-2019 15:40

[Цитировать]

Воображаемая земля / A Land Imagined- Оригинальное название: A Land Imagined
Год выпуска: 2018
Жанр: Детектив, драма, триллер
Режиссер: Крис Ео
В ролях: Питер Юй, Лю Сяои, Го Юэ, Джек Тань, Ишатиак Зико, Келвин Хо, Джордж Лоу, Дебаброта Басу, Энди Чен, Халишан Лян-В центре истории Лок — полицейский из Сингапура, занимающийся расследованием исчезновения китайского мигранта, который работал на участке мелиорации. После предварительного осмотра места происшествия, Лок с коллегой опрашивает соседа пропавшего мужчины и работодателя, но не получает от них необходимую информацию. Тем временем исчезает еще один мужчина, который находился в дружеских отношениях с пропавшим ранее. Когда Лок начинает сравнивать оба случая, он понимает, что виновным в исчезновениях может оказаться работодатель. Лок прослеживает каждый шаг пропавшего без вести, приходит в ночной интернет-клуб и словно перевоплощается в Ванга, запавшего на чат с таинственным невидимкой и красивую смотрительницу интернет-притона.
Выпущено: Франция, Нидерланды, Сингапур, Akanga Film Productions, Films de Force Majeure, MM2 Entertainment
Продолжительность: 01:35:17
Перевод: Профессиональный (многоголосый, закадровый) | HDRezka Studio
Качество: WEB-DL 1080p
Контейнер: MKV
Видео: MPEG-4 AVC, 5620 Кбит/с, 1920x1080
Аудио 1: Русский: AC3, 2 ch, 192 Кбит/с - HDRezka Studio
Аудио 2: Китайский: E-AC3, 6 ch, 640 Кбит/с - Original
Субтитры: Русские, английские, французские, немецкие и др.

Скриншоты


MediaInfo

General
Unique ID : 147629622338845793153114627881078531000 (0x6F106E58402299F14D1E8A713A6EA3B8)
Complete name : A.Land.Imagined.2018.WEB-DL.1080p.mkv
Format : Matroska
Format version : Version 4 / Version 2
File size : 4.24 GiB
Duration : 1 h 35 min
Overall bit rate mode : Variable
Overall bit rate : 6 375 kb/s
Encoded date : UTC 2019-05-07 16:52:19
Writing application : mkvmerge v20.0.0 ('I Am The Sun') 64-bit
Writing library : libebml v1.3.5 + libmatroska v1.4.8
Video
ID : 1
Format : AVC
Format/Info : Advanced Video Codec
Format profile : Main@L4
Format settings, CABAC : Yes
Format settings, RefFrames : 3 frames
Codec ID : V_MPEG4/ISO/AVC
Duration : 1 h 35 min
Bit rate mode : Variable
Bit rate : 5 620 kb/s
Maximum bit rate : 8 430 kb/s
Width : 1 920 pixels
Height : 1 080 pixels
Display aspect ratio : 16:9
Frame rate mode : Constant
Frame rate : 24.000 FPS
Color space : YUV
Chroma subsampling : 4:2:0
Bit depth : 8 bits
Scan type : Progressive
Bits/(Pixel*Frame) : 0.113
Stream size : 3.61 GiB (85%)
Writing library : x264 core 148 r2715 7e75228
Encoding settings : cabac=1 / ref=3 / deblock=1:0:0 / analyse=0x1:0x111 / me=umh / subme=10 / psy=1 / psy_rd=1.00:0.00 / mixed_ref=1 / me_range=24 / chroma_me=1 / trellis=2 / 8x8dct=0 / cqm=0 / deadzone=21,11 / fast_pskip=1 / chroma_qp_offset=-2 / threads=8 / lookahead_threads=1 / sliced_threads=0 / nr=0 / decimate=1 / interlaced=0 / bluray_compat=0 / stitchable=1 / constrained_intra=0 / bframes=2 / b_pyramid=0 / b_adapt=2 / b_bias=0 / direct=3 / weightb=1 / open_gop=0 / weightp=2 / keyint=48 / keyint_min=25 / scenecut=0 / intra_refresh=0 / rc_lookahead=48 / rc=2pass / mbtree=1 / bitrate=5620 / ratetol=1.0 / qcomp=0.50 / qpmin=6 / qpmax=51 / qpstep=4 / cplxblur=20.0 / qblur=0.5 / vbv_maxrate=8430 / vbv_bufsize=11240 / nal_hrd=vbr / filler=0 / ip_ratio=1.40 / aq=1:1.00
Language : English
Default : Yes
Forced : No
Audio #1
ID : 2
Format : AC-3
Format/Info : Audio Coding 3
Format settings, Endianness : Big
Codec ID : A_AC3
Duration : 1 h 35 min
Bit rate mode : Constant
Bit rate : 192 kb/s
Channel(s) : 2 channels
Channel positions : Front: L R
Sampling rate : 48.0 kHz
Frame rate : 31.250 FPS (1536 SPF)
Bit depth : 16 bits
Compression mode : Lossy
Stream size : 131 MiB (3%)
Title : MVO, HDRezka Studio
Language : Russian
Service kind : Complete Main
Default : Yes
Forced : No
Audio #2
ID : 3
Format : E-AC-3
Format/Info : Enhanced Audio Coding 3
Format settings, Endianness : Big
Codec ID : A_EAC3
Duration : 1 h 35 min
Bit rate mode : Constant
Bit rate : 640 kb/s
Channel(s) : 6 channels
Channel positions : Front: L C R, Side: L R, LFE
Sampling rate : 48.0 kHz
Frame rate : 187.500 FPS (256 SPF)
Compression mode : Lossy
Stream size : 436 MiB (10%)
Title : Mandarin
Language : Chinese
Service kind : Complete Main
Default : No
Forced : No
Text #1
ID : 4
Format : UTF-8
Codec ID : S_TEXT/UTF8
Codec ID/Info : UTF-8 Plain Text
Language : Russian
Default : No
Forced : No
Text #2
ID : 5
Format : UTF-8
Codec ID : S_TEXT/UTF8
Codec ID/Info : UTF-8 Plain Text
Language : English
Default : No
Forced : No
Text #3
ID : 6
Format : UTF-8
Codec ID : S_TEXT/UTF8
Codec ID/Info : UTF-8 Plain Text
Language : French
Default : No
Forced : No
Text #4
ID : 7
Format : UTF-8
Codec ID : S_TEXT/UTF8
Codec ID/Info : UTF-8 Plain Text
Language : German
Default : No
Forced : No
Text #5
ID : 8
Format : UTF-8
Codec ID : S_TEXT/UTF8
Codec ID/Info : UTF-8 Plain Text
Language : Arabic
Default : No
Forced : No
Text #6
ID : 9
Format : UTF-8
Codec ID : S_TEXT/UTF8
Codec ID/Info : UTF-8 Plain Text
Language : Czech
Default : No
Forced : No
Text #7
ID : 10
Format : UTF-8
Codec ID : S_TEXT/UTF8
Codec ID/Info : UTF-8 Plain Text
Language : Danish
Default : No
Forced : No
Text #8
ID : 11
Format : UTF-8
Codec ID : S_TEXT/UTF8
Codec ID/Info : UTF-8 Plain Text
Language : Greek
Default : No
Forced : No
Text #9
ID : 12
Format : UTF-8
Codec ID : S_TEXT/UTF8
Codec ID/Info : UTF-8 Plain Text
Language : Spanish
Default : No
Forced : No
Text #10
ID : 13
Format : UTF-8
Codec ID : S_TEXT/UTF8
Codec ID/Info : UTF-8 Plain Text
Language : Finnish
Default : No
Forced : No
Text #11
ID : 14
Format : UTF-8
Codec ID : S_TEXT/UTF8
Codec ID/Info : UTF-8 Plain Text
Language : Hebrew
Default : No
Forced : No
Text #12
ID : 15
Format : UTF-8
Codec ID : S_TEXT/UTF8
Codec ID/Info : UTF-8 Plain Text
Language : Hindi
Default : No
Forced : No
Text #13
ID : 16
Format : UTF-8
Codec ID : S_TEXT/UTF8
Codec ID/Info : UTF-8 Plain Text
Language : Hungarian
Default : No
Forced : No
Text #14
ID : 17
Format : UTF-8
Codec ID : S_TEXT/UTF8
Codec ID/Info : UTF-8 Plain Text
Language : Indonesian
Default : No
Forced : No
Text #15
ID : 18
Format : UTF-8
Codec ID : S_TEXT/UTF8
Codec ID/Info : UTF-8 Plain Text
Language : Italian
Default : No
Forced : No
Text #16
ID : 19
Format : UTF-8
Codec ID : S_TEXT/UTF8
Codec ID/Info : UTF-8 Plain Text
Language : Japanese
Default : No
Forced : No
Text #17
ID : 20
Format : UTF-8
Codec ID : S_TEXT/UTF8
Codec ID/Info : UTF-8 Plain Text
Language : Korean
Default : No
Forced : No
Text #18
ID : 21
Format : UTF-8
Codec ID : S_TEXT/UTF8
Codec ID/Info : UTF-8 Plain Text
Language : Norwegian Bokmal
Default : No
Forced : No
Text #19
ID : 22
Format : UTF-8
Codec ID : S_TEXT/UTF8
Codec ID/Info : UTF-8 Plain Text
Language : Polish
Default : No
Forced : No
Text #20
ID : 23
Format : UTF-8
Codec ID : S_TEXT/UTF8
Codec ID/Info : UTF-8 Plain Text
Language : Portuguese
Default : No
Forced : No
Text #21
ID : 24
Format : UTF-8
Codec ID : S_TEXT/UTF8
Codec ID/Info : UTF-8 Plain Text
Title : Brazilian
Language : Portuguese
Default : No
Forced : No
Text #22
ID : 25
Format : UTF-8
Codec ID : S_TEXT/UTF8
Codec ID/Info : UTF-8 Plain Text
Language : Romanian
Default : No
Forced : No
Text #23
ID : 26
Format : UTF-8
Codec ID : S_TEXT/UTF8
Codec ID/Info : UTF-8 Plain Text
Language : Swedish
Default : No
Forced : No
Text #24
ID : 27
Format : UTF-8
Codec ID : S_TEXT/UTF8
Codec ID/Info : UTF-8 Plain Text
Language : Thai
Default : No
Forced : No
Text #25
ID : 28
Format : UTF-8
Codec ID : S_TEXT/UTF8
Codec ID/Info : UTF-8 Plain Text
Language : Turkish
Default : No
Forced : No
Text #26
ID : 29
Format : UTF-8
Codec ID : S_TEXT/UTF8
Codec ID/Info : UTF-8 Plain Text
Language : Vietnamese
Default : No
Forced : No
Text #27
ID : 30
Format : UTF-8
Codec ID : S_TEXT/UTF8
Codec ID/Info : UTF-8 Plain Text
Title : Simplified
Language : Chinese
Default : No
Forced : No
Text #28
ID : 31
Format : UTF-8
Codec ID : S_TEXT/UTF8
Codec ID/Info : UTF-8 Plain Text
Title : Simplified SDH
Language : Chinese
Default : No
Forced : No
Text #29
ID : 32
Format : UTF-8
Codec ID : S_TEXT/UTF8
Codec ID/Info : UTF-8 Plain Text
Title : Traditional
Language : Chinese
Default : No
Forced : No
Скачать

Скачать торрент! Воображаемая земля / A Land Imagined (2018) WEB-DL 1080p | HDRezka Studio

Как скачивать? · Что такое торрент? · Рейтинг и ограничения

Сайт не распространяет и не хранит электронные версии произведений, а лишь предоставляет доступ к создаваемому пользователями каталогу ссылок на торрент-файлы, которые содержат только списки хеш-сумм

загрузка...

_________________
ПУСТЬ ВАС НЕ СМУЩАЕТ ОТСУТСТВИЕ СИДОВ НА МОИХ РАЗДАЧАХ, РАЗДАЧИ МУЛЬТИТРЕКЕРНЫЕ СИДЫ (Раздающие) по DHT ЕСТЬ ВСЕГДА !!!!
[Профиль] [ЛС]
Показать сообщения:    
Ответить на тему

Текущее время: Сегодня 05:33

Часовой пояс: GMT + 4



Вы не можете начинать темы
Вы не можете отвечать на сообщения
Вы не можете редактировать свои сообщения
Вы не можете удалять свои сообщения
Вы не можете голосовать в опросах
Вы не можете прикреплять файлы к сообщениям
Вы не можете скачивать файлы