Мой маленький пони: Дружба - это чудо / My Little Pony: Friendship Is Magic / Сезон: 9 / Серии: 1-6 из 26 (Jayson Thiessen, James Wootton) [2019, мультфильм, комедия, семейный, фэнтези, WEB-DL 1080p] MVO (MultPlay) + VO (Filama) + Original + Sub

Ответить на тему
 
Автор Сообщение

Magnat ®

Пол:

Стаж: 3 года 11 месяцев

Сообщений: 420

Откуда: xxxtorrents.pro

Пост Пост: #1 от 09-Май-2019 20:13

[Цитировать]

Мой маленький пони: Дружба - это чудо / My Little Pony: Friendship Is Magic Страна: США, Канада
Жанр: Мультфильм, приключения, комедия, семейный, фэнтези
Сезон: 9
Серии: 1-6 (из 26)
Продолжительность: 00:22:04
Год выпуска: 2019
Перевод 1: Любительский (многоголосый закадровый) (MultPlay)
Перевод 2: Одноголосый закадровый (Filama)
Русские субтитры: есть
Режиссёр: Джейсон Тиссен / Jayson Thiessen, Джеймс Вуттон / James Wootton
Роли озвучивали: Тара Стронг, Эшли Болл, Клэр Корлетт, Мишель Кребер, Андреа Либман и другие
Описание: В чудесной стране Эквестрии, в городе Понивилль, живут симпатичные пони. Каждая из них обладает удивительными способностями: умеет летать и управлять погодой, двигать предметы силой мысли, понимать язык животных и птиц или ходить по облакам. Главная героиня мультсериала Искорка - любимая ученица принцессы Селестии. Прибыв в Понивилль, она знакомится с отважной Радугой, элегантной Рарити, трудолюбивой Эпплджек, стеснительной Флаттершай и веселой Пинки Пай. Каждый день Искорка вместе с новыми друзьями решает проблемы жителей города Понивилля. Увлекательные приключения становятся для друзей настоящим уроком добра и взаимопонимания.
[url=tracker.php?f=1460&nm=Friendship+is+Magic]Предыдущие и альтернативные раздачи[/url]
Рейтинг:
Качество: WEB-DL 1080p [url=viewtopic.php?t=5716369](Источник)[/URL]
Формат: MKV
Видео: AVC, 1920x1080, 23.976 fps, ~5000 kbps
Аудио 1 Rus: AC3, 48 kHz, 2 ch, 192 kbps (MultPlay) (серии 1-3)
Аудио 2 Rus: AC3, 48 kHz, 2 ch, 192 kbps (Filama) (серии 3-6)
Аудио 3 Eng: AC3, 48 kHz, 6 ch, 384 kbps (Original)
Субтитры 1 Rus: (Anon2Anon)
Субтитры 2 Rus: (TheDoctor Team)
Субтитры 3 Eng: (Anon2Anon)

Скриншоты

Список серий

01. Начало конца - Часть 1 (The Beginning of the End - Part 1)
02. Начало конца - Часть 2 (The Beginning of the End - Part 2)
03. Перерождение (Uprooted)
04. Великолепная Семерка (Sparkle's Seven)
05. Точка невозврата (The Point of No Return)
06. Общий язык (Common Ground)

Дополнительная информация

В раздаче представлена любительская многоголосая озвучка команды MultPlay, одноголосая озвучка Filama (обе по русским субтитрам команды TheDoctor Team), оригинальная аудиодорожка, а также цветные русские и английские субтитры команды Anon2Anon, за что им всем огромное спасибо. Особая благодарность Wilson Hardi. Мультсериал от Hasbro про пони был задуман для детей младшего возраста. Однако по мере выхода сериал оказался популярным и у более взрослой аудитории. Сериал рекомендован для семейного просмотра. Нумерация серий в этой раздаче точно соответствует нумерации в Википедии, IMDb и в [url=viewtopic.php?t=5716835]раздаче[/url]-источнике субтитров.

Подробные технические данные

Общее
Уникальный идентификатор : 282163635966711920008792246831414129470 (0xD446BD54A05E46F3776035D951FE333E)
Полное имя : D:\Video\Mults\MLP FIM 9 MVO\mlp.fim.s09e03.Uprooted.mkv
Формат : Matroska
Версия формата : Version 4 / Version 2
Размер файла : 926 Мбайт
Продолжительность : 22 м. 4 с.
Общий поток : 5866 Кбит/сек
Дата кодирования : UTC 2019-04-30 05:31:25
Программа кодирования : mkvmerge v28.2.0 ('The Awakening') 64-bit
Библиотека кодирования : libebml v1.3.6 + libmatroska v1.4.9
Видео
Идентификатор : 1
Формат : AVC
Формат/Информация : Advanced Video Codec
Профиль формата : High@L4
Настройки формата : CABAC / 4 Ref Frames
Параметр CABAC формата : Да
Параметр RefFrames формата : 4 кадра
Идентификатор кодека : V_MPEG4/ISO/AVC
Продолжительность : 22 м. 4 с.
Битрейт : 5095 Кбит/сек
Ширина : 1920 пикселей
Высота : 1080 пикселей
Соотношение сторон : 16:9
Режим частоты кадров : Постоянный
Частота кадров : 23,976 (24000/1001) кадра/сек
Цветовое пространство : YUV
Субдискретизация насыщенности : 4:2:0
Битовая глубина : 8 бит
Тип развёртки : Прогрессивная
Бит/(Пиксели*Кадры) : 0.102
Размер потока : 805 Мбайт (87%)
Заголовок : Original
Язык : English
Default : Да
Forced : Нет
Цветовой диапазон : Limited
Основные цвета : BT.709
Характеристики трансфера : BT.709
Коэффициенты матрицы : BT.709
Аудио #1
Идентификатор : 2
Формат : AC-3
Формат/Информация : Audio Coding 3
Параметр Endianness формата : Big
Идентификатор кодека : A_AC3
Продолжительность : 22 м. 4 с.
Вид битрейта : Постоянный
Битрейт : 192 Кбит/сек
Каналы : 2 канала
Расположение каналов : Front: L R
Частота : 48,0 КГц
Частота кадров : 31,250 кадров/сек (1536 SPF)
Битовая глубина : 16 бит
Метод сжатия : С потерями
Размер потока : 30,3 Мбайт (3%)
Заголовок : MultPlay
Язык : Russian
ServiceKind/String : Complete Main
Default : Да
Forced : Нет
Аудио #2
Идентификатор : 3
Формат : AC-3
Формат/Информация : Audio Coding 3
Параметр Endianness формата : Big
Идентификатор кодека : A_AC3
Продолжительность : 22 м. 4 с.
Вид битрейта : Постоянный
Битрейт : 192 Кбит/сек
Каналы : 2 канала
Расположение каналов : Front: L R
Частота : 48,0 КГц
Частота кадров : 31,250 кадров/сек (1536 SPF)
Битовая глубина : 16 бит
Метод сжатия : С потерями
Размер потока : 30,3 Мбайт (3%)
Заголовок : Filama
Язык : Russian
ServiceKind/String : Complete Main
Default : Нет
Forced : Нет
Аудио #3
Идентификатор : 4
Формат : AC-3
Формат/Информация : Audio Coding 3
Параметр Endianness формата : Big
Идентификатор кодека : A_AC3
Продолжительность : 22 м. 4 с.
Вид битрейта : Постоянный
Битрейт : 384 Кбит/сек
Каналы : 6 каналов
Расположение каналов : Front: L C R, Side: L R, LFE
Частота : 48,0 КГц
Частота кадров : 31,250 кадров/сек (1536 SPF)
Битовая глубина : 16 бит
Метод сжатия : С потерями
Размер потока : 60,7 Мбайт (7%)
Заголовок : Original
Язык : English
ServiceKind/String : Complete Main
Default : Нет
Forced : Нет
Текст #1
Идентификатор : 5
Формат : ASS
Идентификатор кодека : S_TEXT/ASS
Идентификатор кодека/Информация : Advanced Sub Station Alpha
Продолжительность : 21 м. 25 с.
Битрейт : 168 бит/сек
ElementCount : 356
Метод сжатия : Без потерь
Размер потока : 26,4 Кбайт (0%)
Заголовок : Anon2Anon
Язык : Russian
Default : Нет
Forced : Нет
Текст #2
Идентификатор : 6
Формат : ASS
Идентификатор кодека : S_TEXT/ASS
Идентификатор кодека/Информация : Advanced Sub Station Alpha
Продолжительность : 21 м. 11 с.
Битрейт : 176 бит/сек
ElementCount : 325
Метод сжатия : Без потерь
Размер потока : 27,4 Кбайт (0%)
Заголовок : TheDoctor Team
Язык : Russian
Default : Нет
Forced : Нет
Текст #3
Идентификатор : 7
Формат : ASS
Идентификатор кодека : S_TEXT/ASS
Идентификатор кодека/Информация : Advanced Sub Station Alpha
Продолжительность : 21 м. 25 с.
Битрейт : 118 бит/сек
ElementCount : 356
Метод сжатия : Без потерь
Размер потока : 18,5 Кбайт (0%)
Заголовок : Original
Язык : English
Default : Нет
Forced : Нет
Скачать

Скачать торрент!

Как скачивать? · Что такое торрент? · Рейтинг и ограничения

Сайт не распространяет и не хранит электронные версии произведений, а лишь предоставляет доступ к создаваемому пользователями каталогу ссылок на торрент-файлы, которые содержат только списки хеш-сумм

загрузка...

_________________
ПУСТЬ ВАС НЕ СМУЩАЕТ ОТСУТСТВИЕ СИДОВ НА МОИХ РАЗДАЧАХ, РАЗДАЧИ МУЛЬТИТРЕКЕРНЫЕ СИДЫ (Раздающие) по DHT ЕСТЬ ВСЕГДА !!!!
[Профиль] [ЛС]
Показать сообщения:    
Ответить на тему

Текущее время: Сегодня 06:38

Часовой пояс: GMT + 4



Вы не можете начинать темы
Вы не можете отвечать на сообщения
Вы не можете редактировать свои сообщения
Вы не можете удалять свои сообщения
Вы не можете голосовать в опросах
Вы не можете прикреплять файлы к сообщениям
Вы не можете скачивать файлы