Дороро [ТВ-2] / Dororo (2019) [TV] [01-17 из 24] [Без хардсаба] [RUS(ext), JAP+SUB] [2019, приключения, фэнтези, WEBRip] [1080p]

Ответить на тему
 
Автор Сообщение

Magnat ®

Пол:

Стаж: 4 года 5 месяцев

Сообщений: 420

Откуда: xxxtorrents.pro

Пост Пост: #1 от 09-Май-2019 20:11

[Цитировать]

Дороро [ТВ-2]
Dororo (2019)
- Год выпуска: 2019
Страна: Япония
Жанр: приключения, фэнтези
Тип: ТВ
Продолжительность: (24 эп.), 25 мин.-Основа: манга
Режиссёр: Фурухаси Кадзухиро
Автор оригинала: Тэдзука Осаму
Студия: MAPPA, Tezuka Productions-Ссылки: World Art | AniDB | ANN-Описание: В стране царит смута, и один из генералов жаждет во что бы то ни стало одержать победу в решающей битве, которая ни много ни мало сулит ему трон всей страны. Для этого он решается на страшный грех и заключает сделку с двенадцатью демонами: те помогают ему выиграть бой, а он за это отдаёт каждому из них одну из частей тела своего новорожденного сына. Обречённый на гибель мальчик, тем не менее, выживает благодаря помощи доктора, создавшего для него протезы-оружие. Преданный собственным отцом, юноша ничего так не желает, как отомстить родителю, но для этого ему сперва необходимо убить каждого демона и вернуть отнятые части тела, по одной за раз. На своём пути охоты и истребления демонов молодой человек встречает сироту Дороро, который утверждает, что является величайшим вором Японии. Объединившись, они вместе отправляются в трудный путь, полный опасностей и приключений.
© Kansai Studio-Качество: WEBRip
Тип релиза: Без хардсаба
Формат видео: MKV
Наличие линковки: Нет
Релиз/Автор рипа: U3-Web-Видео: x264, 1920x1080, 3340 kbps, 23.976 fps, 8 bit
Аудио 1: E-AC-3, 224 kbps, 48.0 kHZ, 2 ch. Язык Японский ; Original
Аудио 2: Vorbis, 192 kbps, 48.0 kHZ, 2 ch. Язык Русский (внешним файлом) ; Озвучка: Профессиональная (многоголосая) [Kansai Studio] 01-14
Субтитры: SovetRomantica Язык субтитров Русский (внешним файлом) 01-17 / 24-

MediaInfo

General
Unique ID : 76687804175640645647748044150151772567 (0x39B188A9F1491013378BE1C304F6F997)
Complete name : E:\Anime\Dororo 2019\[U3-Web] Dororo 2019 - EP01 [WEB 1080p AVC E-AC-3].mkv
Format : Matroska
Format version : Version 4 / Version 2
File size : 617 MiB
Duration : 23 min 59 s
Overall bit rate : 3 593 kb/s
Movie name : [U3-Web] Dororo 2019 - EP01 [WEB 1080p AVC E-AC-3] [Multi-Subs]
Encoded date : UTC 2019-05-08 08:50:41
Writing application : mkvmerge v33.1.0 ('Primrose') 64-bit
Writing library : libebml v1.3.7 + libmatroska v1.5.0
Attachments : AGPALBI.TTF / ALBR55X.ttf / ALBR55X_0.TTF / cambriab.ttf / cambriab_1.ttf / cambriaz.ttf / cambriaz_1.ttf / dsbb.ttf / dsbbb.otf / FLOYDC.TTF / LatoWeb-Light.ttf
Video
ID : 1
Format : AVC
Format/Info : Advanced Video Codec
Format profile : High@L4
Format settings, CABAC : Yes
Format settings, RefFrames : 4 frames
Codec ID : V_MPEG4/ISO/AVC
Duration : 23 min 59 s
Bit rate : 3 341 kb/s
Width : 1 920 pixels
Height : 1 080 pixels
Display aspect ratio : 16:9
Frame rate mode : Constant
Frame rate : 23.976 (24000/1001) FPS
Color space : YUV
Chroma subsampling : 4:2:0
Bit depth : 8 bits
Scan type : Progressive
Bits/(Pixel*Frame) : 0.067
Stream size : 573 MiB (93%)
Default : Yes
Forced : No
Color range : Limited
Color primaries : BT.709
Transfer characteristics : BT.709
Matrix coefficients : BT.709
Audio
ID : 2
Format : E-AC-3
Format/Info : Enhanced Audio Coding 3
Format settings, Endianness : Big
Codec ID : A_EAC3
Duration : 23 min 59 s
Bit rate mode : Constant
Bit rate : 224 kb/s
Channel(s) : 2 channels
Channel positions : Front: L R
Sampling rate : 48.0 kHz
Frame rate : 187.500 FPS (256 SPF)
Compression mode : Lossy
Stream size : 38.5 MiB (6%)
Title : Japanese
Language : Japanese
Service kind : Complete Main
Default : Yes
Forced : No

Эпизоды

1. The Story of Daigo
2. The Story of Bandai
3. The Story of Jukai
4. The Story of the Cursed Sword
5. The Story of the Moriko Song, Part 1
6. The Story of the Moriko Song, Part 2
7. The Story of the Jorogumo Silk Spider
8. The Story of Saru
9. The Story of the Mercilessness
10. The Story of Tahomaru
11. The Story of Banmon, Part 1
12. The Story of Banmon, Part 2
13. The Story of the Blank-Faced Buddha
14. The Story of Sabame
15. The Story of the Scene from Hell
16. The Story of Shiranui
17. Episode 17

Скриншоты

Скачать

Скачать торрент!

Как скачивать? · Что такое торрент? · Рейтинг и ограничения

Сайт не распространяет и не хранит электронные версии произведений, а лишь предоставляет доступ к создаваемому пользователями каталогу ссылок на торрент-файлы, которые содержат только списки хеш-сумм

загрузка...

_________________
ПУСТЬ ВАС НЕ СМУЩАЕТ ОТСУТСТВИЕ СИДОВ НА МОИХ РАЗДАЧАХ, РАЗДАЧИ МУЛЬТИТРЕКЕРНЫЕ СИДЫ (Раздающие) по DHT ЕСТЬ ВСЕГДА !!!!
[Профиль] [ЛС]
Показать сообщения:    
Ответить на тему

Текущее время: Сегодня 15:02

Часовой пояс: GMT + 4



Вы не можете начинать темы
Вы не можете отвечать на сообщения
Вы не можете редактировать свои сообщения
Вы не можете удалять свои сообщения
Вы не можете голосовать в опросах
Вы не можете прикреплять файлы к сообщениям
Вы не можете скачивать файлы