Без компромиссов / Право на выбор / Fei hu / First Option (Гордон Чан / Gordon Chan) [1996, Гонконг, Боевик, DVDRip] VO + Original Zho

Ответить на тему
 
Автор Сообщение

Magnat ®

Пол:

Стаж: 4 года 3 месяца

Сообщений: 420

Откуда: xxxtorrents.pro

Пост Пост: #1 от 09-Май-2019 20:08

[Цитировать]

Без компромиссов / Право на выбор / Fei hu / First Option
Страна: Гонконг
Жанр: Боевик
Год выпуска: 1996
Продолжительность: 01:26:24
Перевод: Одноголосый закадровый
Субтитры: нет
Оригинальная аудиодорожка: китайский
Режиссер: Гордон Чан / Gordon Chan
В ролях: Майкл Вон, Джиджи Люн, Дэмиэн Лау, Стивен Чан Так Гвон, Мэн Биу Ли, Квонг Ким Йип,
Алекс Чунг, Чанг Хунг Оун, Джо Чунг Мэн Квонг, Винсент Чик
Описание: Майк Стоун — опытнейший солдат, возглавляющий специальное подразделение по
борьбе с преступностью. Но его отряд состоит из совсем еще неопытных и необстрелянных юнцов,
которые не в силах справится с бесчинствующей в городе группировкой, занимающейся
контрабандой наркотиков.
Вся она состоит из бывших американских спецназовцев, а командует ими хитрый и жестокий
убийца. На Стоуна возложена тяжелейшая задача — в кратчайшие сроки подготовить свой отряд
для решающей схватки с бандитами. Он должен исключить даже малейшую возможность
просчета, ведь бой пойдет не на жизнь, а на смерть.
Качество видео: DVDRip
Формат видео: AVI
Видео: XviD build 73, 704x384 (1.83:1), 25 fps, 1700 kbps avg, 0.25 bit/pixel
Аудио: AC3 Dolby Digital, 48000Hz 2/0 (L,R) ch (mono), 192 kbps avg
Аудио 2: 48 kHz, AC3 Dolby Digital, 3/2 (L,C,R,l,r) + LFE ch, ~448 kbps

MediaInfo

Без компромиссов (Fei hu aka First option) [by ale_x2008].avi
Format : AVI
Format/Info : Audio Video Interleave
File size : 1.42 GiB
Duration : 1 h 26 min
Overall bit rate : 2 351 kb/s
Movie name : Без компромиссов (Fei hu aka First option) [by ale_x2008]
Director : by ale_x2008
Writing application : VirtualDubMod 1.5.10.2 (build 2540/release)
Copyright : Edich2
Comment : ***
Video
ID : 0
Format : MPEG-4 Visual
Format profile : Advanced Simple@L5
Format settings : BVOP1 / Custom Matrix
Format settings, BVOP : 1
Format settings, QPel : No
Format settings, GMC : No warppoints
Format settings, Matrix : Custom
Codec ID : XVID
Codec ID/Hint : XviD
Duration : 1 h 26 min
Bit rate : 1 701 kb/s
Width : 704 pixels
Height : 384 pixels
Display aspect ratio : 1.85:1
Frame rate : 25.000 FPS
Color space : YUV
Chroma subsampling : 4:2:0
Bit depth : 8 bits
Scan type : Progressive
Compression mode : Lossy
Bits/(Pixel*Frame) : 0.252
Stream size : 1.03 GiB (72%)
Writing library : XviD 73
Audio #1
ID : 1
Format : AC-3
Format/Info : Audio Coding 3
Codec ID : 2000
Duration : 1 h 26 min
Bit rate mode : Constant
Bit rate : 192 kb/s
Channel(s) : 2 channels
Channel positions : Front: L R
Sampling rate : 48.0 kHz
Frame rate : 31.250 FPS (1536 SPF)
Bit depth : 16 bits
Compression mode : Lossy
Stream size : 119 MiB (8%)
Alignment : Split accross interleaves
Interleave, duration : 40 ms (1.00 video frame)
Interleave, preload duratio : 500 ms
Service kind : Complete Main
Audio #2
ID : 2
Format : AC-3
Format/Info : Audio Coding 3
Codec ID : 2000
Duration : 1 h 25 min
Bit rate mode : Constant
Bit rate : 448 kb/s
Channel(s) : 6 channels
Channel positions : Front: L C R, Side: L R, LFE
Sampling rate : 48.0 kHz
Frame rate : 31.250 FPS (1536 SPF)
Bit depth : 16 bits
Compression mode : Lossy
Stream size : 274 MiB (19%)
Alignment : Split accross interleaves
Interleave, duration : 40 ms (1.01 video frame)
Interleave, preload duratio : 500 ms
Service kind : Complete Main

Скриншоты




Скачать

Скачать торрент!

Как скачивать? · Что такое торрент? · Рейтинг и ограничения

Сайт не распространяет и не хранит электронные версии произведений, а лишь предоставляет доступ к создаваемому пользователями каталогу ссылок на торрент-файлы, которые содержат только списки хеш-сумм

загрузка...

_________________
ПУСТЬ ВАС НЕ СМУЩАЕТ ОТСУТСТВИЕ СИДОВ НА МОИХ РАЗДАЧАХ, РАЗДАЧИ МУЛЬТИТРЕКЕРНЫЕ СИДЫ (Раздающие) по DHT ЕСТЬ ВСЕГДА !!!!
[Профиль] [ЛС]
Показать сообщения:    
Ответить на тему

Текущее время: Сегодня 01:00

Часовой пояс: GMT + 4



Вы не можете начинать темы
Вы не можете отвечать на сообщения
Вы не можете редактировать свои сообщения
Вы не можете удалять свои сообщения
Вы не можете голосовать в опросах
Вы не можете прикреплять файлы к сообщениям
Вы не можете скачивать файлы