600 кг золота / 600 kilos d'or pur (Эрик Беснард / Eric Besnard) [2010, Франция, комедия, приключения, HDRip] MVO

Ответить на тему
 
Автор Сообщение

user ®

Стаж: 11 лет

Сообщений: 15151

Пост Пост: #1 от 17-Фев-2011 23:51

[Цитировать]

600 кг золота / 600 kilos d'or pur
Страна: Франция
Жанр: комедия, приключения
Год выпуска: 2010
Продолжительность: 01:39:23
Перевод: Профессиональный (многоголосый закадровый)
Cубтитры: нет
Режиссер: Эрик Беснард / Eric Besnard
В ролях: Кловис Корнийяк, Одри Дана, Патрик Шенэ, Клаудио Сантамария, Бруно Соло, Эрик Эбони, Жерар Клейн, Мехди Неббу, Юбер Сен-Макари, Жан-Пьер Мартен и др.
Описание: Несколько отчаянных искателей приключений объединяется, чтобы купить золотодобывающую шахту в Гайане. Когда рискованная сделка срывается, героям приходится спешно скрываться на вертолете, который терпит крушение в непролазных джунглях. С собой у путешественников 600 килограммов золота. Вскоре эта ноша становится слишком тяжелой… Вскоре инстинкт выживания берет верх над жаждой богатства, но никто не хочет оставаться в дураках. И вот уже золотая лихорадка превращает бывших товарищей в смертных врагов….
Сэмпл: http://multi-up.com/428575
Качество видео: HDRip исходник неизвестен
Формат видео: AVI
Видео: 720x304, MPEG-4, 24 fps, 780 Kbps
Аудио: AC3, 192 kb/s (2 ch), 48.0 KHz

MediaInfo

General
Complete name : C:\---FILMS---\600.kg.zolota.2010.P2.HDRip.avi
Format : AVI
Format/Info : Audio Video Interleave
File size : 693 MiB
Duration : 1h 39mn
Overall bit rate : 974 Kbps
Writing application : VirtualDubMod 1.5.10.2 (build 2540/release)
Writing library : VirtualDub build 32706/release
Video
ID : 0
Format : MPEG-4 Visual
Format settings, BVOP : 1
Format settings, QPel : No
Format settings, GMC : No warppoints
Format settings, Matrix : Default (H.263)
Muxing mode : Packed bitstream
Codec ID : DX50
Codec ID/Hint : DivX 5
Duration : 1h 39mn
Bit rate : 780 Kbps
Width : 720 pixels
Height : 304 pixels
Display aspect ratio : 2.35:1
Frame rate : 24.000 fps
Color space : YUV
Chroma subsampling : 4:2:0
Bit depth : 8 bits
Scan type : Progressive
Compression mode : Lossy
Bits/(Pixel*Frame) : 0.148
Stream size : 554 MiB (80%)
Writing library : DivX 6.8.5 (UTC 2009-08-20)
Audio
ID : 1
Format : AC-3
Format/Info : Audio Coding 3
Mode extension : CM (complete main)
Codec ID : 2000
Duration : 1h 35mn
Bit rate mode : Constant
Bit rate : 192 Kbps
Channel(s) : 2 channels
Channel positions : Front: L R
Sampling rate : 48.0 KHz
Bit depth : 16 bits
Compression mode : Lossy
Stream size : 132 MiB (19%)
Alignment : Split accross interleaves
Interleave, duration : 43 ms (1.04 video frame)
Interleave, preload duration : 500 ms

Скриншот c названием фильма

Скриншоты

Скачать

Скачать торрент! 600 кг золота / 600 kilos d'or pur (Эрик Беснард / Eric Besnard) [2010, Франция, комедия, приключения, HDRip] MVO

Как скачивать? · Что такое торрент? · Рейтинг и ограничения

Сайт не распространяет и не хранит электронные версии произведений, а лишь предоставляет доступ к создаваемому пользователями каталогу ссылок на торрент-файлы, которые содержат только списки хеш-сумм

[Профиль] [ЛС]
Показать сообщения:    
Ответить на тему

Текущее время: Сегодня 19:02

Часовой пояс: GMT + 4



Вы не можете начинать темы
Вы не можете отвечать на сообщения
Вы не можете редактировать свои сообщения
Вы не можете удалять свои сообщения
Вы не можете голосовать в опросах
Вы не можете прикреплять файлы к сообщениям
Вы не можете скачивать файлы