Американские боги / American Gods / Сезон: 2 / Серии: 1-8 из 8 (Крис Бирн) [2019, фэнтези, драма, детектив, WEB-DL 1080p] DUB (Нота) + Original + Sub (Rus, Eng, Multi)

Ответить на тему
 
Автор Сообщение

Magnat ®

Пол:

Стаж: 6 лет 5 месяцев

Сообщений: 453

Откуда: Москва

Пост Пост: #1 от 09-Май-2019 18:26

[Цитировать]

- Год выпуска: 2019
Страна: США
Жанр: фэнтези, драма, детектив
Продолжительность: ~01:00:00
Перевод: Профессиональный (полное дублирование) | студия "Нота"
Режиссёры: Кристофер Дж. Бирн, Фредерик И. О. Туа, Дебора Чоу, Стэйси Пассон, Салли Ричардсон-Уитфилд, Рэйчел Талалэй, Пако Кабесас
В ролях: Рики Уиттл, Эмили Браунинг, Криспин Гловер, Брюс Лэнгли, Йетиде Бадаки, Пабло Шрайбер, Иэн Макшейн, Орландо Джонс, Муса Крэйиш, Омид Абтахи, Демор Барнс-Экранизация фантастического бестселлера Нила Геймана. Бывший заключённый Тень Мун устраивается на работу к таинственному незнакомцу по имени Мистер Среда, который оказывается воплощением верховного скандинавского бога Одина. Кроме него в Америке скрывается ещё целое множество героев древних мифов и преданий. Старые Боги потеряли своё могущество, уступив место Новым Американским Богам, порождённым массовой культурой. Между двумя пантеонами – древнего и современного мира – назревает война за веру людей. Тень не рад возвращению из тюрьмы – его отпустили из-за смерти жены в результате несчастного случая. Он едет на похороны, не переставая думать о своей жизни и своём месте в этом мире, который приносит ему столько горестей. С трудом попав на рейс, он переживает в самолёте сильнейший шторм. В салоне он встречает Мистера Среду, который знает о нём больше, чем Тень мог себе представить.
Качество: WEB-DL 1080p | NTb
Контейнер: MKV
Видео: AVC, 1920x1080 (16:9), 23.976 fps, ~9031 kbps, 0.182 bit/pixel
Аудио №1: E-AC3 5.1, 48 kHz, 640 kbps
Аудио №2: E-AC3 5.1, 48 kHz, 640 kbps
Субтитры: Русские (Forced, Full), английские (Full, SDH) и другие
Реклама: Отсутствует

Список серий

01. Дом на скале / House on the Rock
02. Обольстительный человек / The Beguiling Man
03. Мунин / Muninn
04. Величайшая история из всех / The Greatest Story Ever Told
05. Пути мёртвых / The Ways of the Dead
06. Донар Великий / Donar the Great
07. Сокровище солнца / Treasure of the Sun
08. Лунная тень / Moon Shadow

MediaInfo

General
Unique ID : 158762761381021225165049951117784376352 (0x7770987A88E34D9163DB021A32BFE420)
Complete name : American.Gods.S02.1080p.WEB-DL.DUB.EniaHD\American.Gods.S02E01.House.on.the.Rock.1080p.WEB-DL.DUB.EniaHD.mkv
Format : Matroska
Format version : Version 4 / Version 2
File size : 3.88 GiB
Duration : 53 min 53 s
Overall bit rate : 10.3 Mb/s
Movie name : Дом на скале / House on the Rock
Track name/Position : 1
Track name/Total : 8
Description : Wednesday gathers the Old Gods in his memory to discuss the New Gods usurping their power, and invites Shadow along for the ride. Sweeney still wants his coin, Laura isn't giving it up, and Mr. World draws on a new resource to target the Old Gods.
Released date : UTC 2019-03-10 20:00:00
Encoded date : UTC 2019-03-11 10:23:41
Writing application : mkvmerge v31.0.0 ('Dolores In A Shoestand') 32-bit
Writing library : libebml v1.3.6 + libmatroska v1.4.9
Copyright : EniaHD
Cover : Yes
Attachments : cover.american.gods.jpg
Video
ID : 1
Format : AVC
Format/Info : Advanced Video Codec
Format profile : High@L4
Format settings : CABAC / 4 Ref Frames
Format settings, CABAC : Yes
Format settings, ReFrames : 4 frames
Codec ID : V_MPEG4/ISO/AVC
Duration : 53 min 53 s
Bit rate mode : Constant
Bit rate : 9 031 kb/s
Nominal bit rate : 10 000 kb/s
Width : 1 920 pixels
Height : 1 080 pixels
Display aspect ratio : 16:9
Frame rate mode : Constant
Frame rate : 23.976 (24000/1001) FPS
Color space : YUV
Chroma subsampling : 4:2:0
Bit depth : 8 bits
Scan type : Progressive
Bits/(Pixel*Frame) : 0.182
Stream size : 3.40 GiB (88%)
Title : American.Gods.S02E01.House.on.the.Rock.1080p.WEB-DL.DUB.EniaHD
Language : English
Default : Yes
Forced : No
Color range : Limited
Color primaries : BT.709
Transfer characteristics : BT.709
Matrix coefficients : BT.709
Audio #1
ID : 2
Format : E-AC-3
Format/Info : Enhanced Audio Coding 3
Codec ID : A_EAC3
Duration : 53 min 53 s
Bit rate mode : Constant
Bit rate : 640 kb/s
Channel(s) : 6 channels
Channel positions : Front: L C R, Side: L R, LFE
Sampling rate : 48.0 kHz
Frame rate : 187.500 FPS (256 SPF)
Compression mode : Lossy
Stream size : 247 MiB (6%)
Title : E-AC3 5.1 @ 640 kbps - DUB, Нота
Language : Russian
Service kind : Complete Main
Default : Yes
Forced : No
Audio #2
ID : 3
Format : E-AC-3
Format/Info : Enhanced Audio Coding 3
Codec ID : A_EAC3
Duration : 53 min 53 s
Bit rate mode : Constant
Bit rate : 640 kb/s
Channel(s) : 6 channels
Channel positions : Front: L C R, Side: L R, LFE
Sampling rate : 48.0 kHz
Frame rate : 187.500 FPS (256 SPF)
Compression mode : Lossy
Stream size : 247 MiB (6%)
Title : E-AC3 5.1 @ 640 kbps - Original
Language : English
Service kind : Complete Main
Default : No
Forced : No
Text #1
ID : 4
Format : UTF-8
Codec ID : S_TEXT/UTF8
Codec ID/Info : UTF-8 Plain Text
Duration : 48 min 18 s
Bit rate : 2 b/s
Count of elements : 28
Stream size : 1 012 Bytes (0%)
Title : Forced
Language : Russian
Default : Yes
Forced : Yes
Text #2
ID : 5
Format : UTF-8
Codec ID : S_TEXT/UTF8
Codec ID/Info : UTF-8 Plain Text
Duration : 53 min 44 s
Bit rate : 72 b/s
Count of elements : 546
Stream size : 28.6 KiB (0%)
Title : Full
Language : Russian
Default : No
Forced : No
Text #3
ID : 6
Format : UTF-8
Codec ID : S_TEXT/UTF8
Codec ID/Info : UTF-8 Plain Text
Duration : 53 min 34 s
Bit rate : 51 b/s
Count of elements : 652
Stream size : 20.1 KiB (0%)
Title : Full
Language : English
Default : No
Forced : No
Text #4
ID : 7
Format : UTF-8
Codec ID : S_TEXT/UTF8
Codec ID/Info : UTF-8 Plain Text
Duration : 53 min 34 s
Bit rate : 54 b/s
Count of elements : 713
Stream size : 21.3 KiB (0%)
Title : Full SDH
Language : English
Default : No
Forced : No
Text #5
ID : 8
Format : UTF-8
Codec ID : S_TEXT/UTF8
Codec ID/Info : UTF-8 Plain Text
Duration : 53 min 40 s
Bit rate : 62 b/s
Count of elements : 542
Stream size : 24.6 KiB (0%)
Language : Arabic
Default : No
Forced : No
Text #6
ID : 9
Format : UTF-8
Codec ID : S_TEXT/UTF8
Codec ID/Info : UTF-8 Plain Text
Duration : 53 min 44 s
Bit rate : 113 b/s
Count of elements : 540
Stream size : 44.5 KiB (0%)
Language : Bengali
Default : No
Forced : No
Text #7
ID : 10
Format : UTF-8
Codec ID : S_TEXT/UTF8
Codec ID/Info : UTF-8 Plain Text
Duration : 51 min 34 s
Bit rate : 45 b/s
Count of elements : 535
Stream size : 17.3 KiB (0%)
Language : Catalan
Default : No
Forced : No
Text #8
ID : 11
Format : UTF-8
Codec ID : S_TEXT/UTF8
Codec ID/Info : UTF-8 Plain Text
Duration : 51 min 38 s
Bit rate : 45 b/s
Count of elements : 582
Stream size : 17.1 KiB (0%)
Language : Danish
Default : No
Forced : No
Text #9
ID : 12
Format : UTF-8
Codec ID : S_TEXT/UTF8
Codec ID/Info : UTF-8 Plain Text
Duration : 53 min 44 s
Bit rate : 43 b/s
Count of elements : 526
Stream size : 17.3 KiB (0%)
Language : German
Default : No
Forced : No
Text #10
ID : 13
Format : UTF-8
Codec ID : S_TEXT/UTF8
Codec ID/Info : UTF-8 Plain Text
Duration : 51 min 34 s
Bit rate : 42 b/s
Count of elements : 559
Stream size : 15.9 KiB (0%)
Language : Spanish
Default : No
Forced : No
Text #11
ID : 14
Format : UTF-8
Codec ID : S_TEXT/UTF8
Codec ID/Info : UTF-8 Plain Text
Duration : 51 min 34 s
Bit rate : 42 b/s
Count of elements : 559
Stream size : 15.9 KiB (0%)
Language : Spanish
Default : No
Forced : No
Text #12
ID : 15
Format : UTF-8
Codec ID : S_TEXT/UTF8
Codec ID/Info : UTF-8 Plain Text
Duration : 51 min 38 s
Bit rate : 46 b/s
Count of elements : 594
Stream size : 17.5 KiB (0%)
Language : Finnish
Default : No
Forced : No
Text #13
ID : 16
Format : UTF-8
Codec ID : S_TEXT/UTF8
Codec ID/Info : UTF-8 Plain Text
Duration : 53 min 44 s
Bit rate : 41 b/s
Count of elements : 582
Stream size : 16.3 KiB (0%)
Language : French
Default : No
Forced : No
Text #14
ID : 17
Format : UTF-8
Codec ID : S_TEXT/UTF8
Codec ID/Info : UTF-8 Plain Text
Duration : 51 min 38 s
Bit rate : 60 b/s
Count of elements : 598
Stream size : 22.9 KiB (0%)
Language : Hebrew
Default : No
Forced : No
Text #15
ID : 18
Format : UTF-8
Codec ID : S_TEXT/UTF8
Codec ID/Info : UTF-8 Plain Text
Duration : 53 min 44 s
Bit rate : 111 b/s
Count of elements : 541
Stream size : 44.0 KiB (0%)
Language : Hindi
Default : No
Forced : No
Text #16
ID : 19
Format : UTF-8
Codec ID : S_TEXT/UTF8
Codec ID/Info : UTF-8 Plain Text
Duration : 53 min 44 s
Bit rate : 43 b/s
Count of elements : 534
Stream size : 17.1 KiB (0%)
Language : Indonesian
Default : No
Forced : No
Text #17
ID : 20
Format : UTF-8
Codec ID : S_TEXT/UTF8
Codec ID/Info : UTF-8 Plain Text
Duration : 53 min 44 s
Bit rate : 48 b/s
Count of elements : 490
Stream size : 19.2 KiB (0%)
Language : Italian
Default : No
Forced : No
Text #18
ID : 21
Format : UTF-8
Codec ID : S_TEXT/UTF8
Codec ID/Info : UTF-8 Plain Text
Duration : 53 min 44 s
Bit rate : 45 b/s
Count of elements : 538
Stream size : 18.0 KiB (0%)
Language : Korean
Default : No
Forced : No
Text #19
ID : 22
Format : UTF-8
Codec ID : S_TEXT/UTF8
Codec ID/Info : UTF-8 Plain Text
Duration : 53 min 44 s
Bit rate : 107 b/s
Count of elements : 540
Stream size : 42.1 KiB (0%)
Language : Marathi
Default : No
Forced : No
Text #20
ID : 23
Format : UTF-8
Codec ID : S_TEXT/UTF8
Codec ID/Info : UTF-8 Plain Text
Duration : 51 min 37 s
Bit rate : 41 b/s
Count of elements : 594
Stream size : 15.9 KiB (0%)
Language : Norwegian Bokmal
Default : No
Forced : No
Text #21
ID : 24
Format : UTF-8
Codec ID : S_TEXT/UTF8
Codec ID/Info : UTF-8 Plain Text
Duration : 53 min 44 s
Bit rate : 44 b/s
Count of elements : 531
Stream size : 17.5 KiB (0%)
Language : Dutch
Default : No
Forced : No
Text #22
ID : 25
Format : UTF-8
Codec ID : S_TEXT/UTF8
Codec ID/Info : UTF-8 Plain Text
Duration : 53 min 44 s
Bit rate : 41 b/s
Count of elements : 471
Stream size : 16.5 KiB (0%)
Language : Polish
Default : No
Forced : No
Text #23
ID : 26
Format : UTF-8
Codec ID : S_TEXT/UTF8
Codec ID/Info : UTF-8 Plain Text
Duration : 53 min 44 s
Bit rate : 42 b/s
Count of elements : 535
Stream size : 16.9 KiB (0%)
Language : Portuguese
Default : No
Forced : No
Text #24
ID : 27
Format : UTF-8
Codec ID : S_TEXT/UTF8
Codec ID/Info : UTF-8 Plain Text
Duration : 53 min 44 s
Bit rate : 42 b/s
Count of elements : 535
Stream size : 16.9 KiB (0%)
Language : Portuguese
Default : No
Forced : No
Text #25
ID : 28
Format : UTF-8
Codec ID : S_TEXT/UTF8
Codec ID/Info : UTF-8 Plain Text
Duration : 51 min 38 s
Bit rate : 46 b/s
Count of elements : 583
Stream size : 17.5 KiB (0%)
Language : Swedish
Default : No
Forced : No
Text #26
ID : 29
Format : UTF-8
Codec ID : S_TEXT/UTF8
Codec ID/Info : UTF-8 Plain Text
Duration : 51 min 38 s
Bit rate : 159 b/s
Count of elements : 603
Stream size : 60.2 KiB (0%)
Language : Tamil
Default : No
Forced : No
Text #27
ID : 30
Format : UTF-8
Codec ID : S_TEXT/UTF8
Codec ID/Info : UTF-8 Plain Text
Duration : 53 min 44 s
Bit rate : 125 b/s
Count of elements : 540
Stream size : 49.5 KiB (0%)
Language : Telugu
Default : No
Forced : No
Text #28
ID : 31
Format : UTF-8
Codec ID : S_TEXT/UTF8
Codec ID/Info : UTF-8 Plain Text
Duration : 53 min 44 s
Bit rate : 44 b/s
Count of elements : 523
Stream size : 17.6 KiB (0%)
Language : Turkish
Default : No
Forced : No
Text #29
ID : 32
Format : UTF-8
Codec ID : S_TEXT/UTF8
Codec ID/Info : UTF-8 Plain Text
Duration : 51 min 40 s
Bit rate : 42 b/s
Count of elements : 599
Stream size : 16.0 KiB (0%)
Language : Chinese
Default : No
Forced : No
Text #30
ID : 33
Format : UTF-8
Codec ID : S_TEXT/UTF8
Codec ID/Info : UTF-8 Plain Text
Duration : 51 min 40 s
Bit rate : 42 b/s
Count of elements : 599
Stream size : 16.0 KiB (0%)
Language : Chinese
Default : No
Forced : No
Menu
00:00:00.000 : en:Amazon Original
00:00:06.000 : en:Previously On
00:02:22.000 : en:Opening Credits
00:03:53.000 : en:Now is a time for preparation
00:07:26.000 : en:Shadow doesn't know what to believe anymore
00:10:50.000 : en:What is the House On The Rock?
00:13:22.000 : en:Mr. World has a request
00:14:29.000 : en:Arrival at Castle Rock
00:18:25.000 : en:Salim is following his heart
00:19:23.000 : en:A fortune reveals everything and nothing
00:23:08.000 : en:Mr. Wednesday greets his new guests
00:25:28.000 : en:Shadow carries heavy burdens
00:26:54.000 : en:Laura wants a fortune
00:27:51.000 : en:People are called to places of power
00:29:03.000 : en:A powerful carnival ride
00:31:40.000 : en:A meeting of the old gods
00:40:01.000 : en:A celebratory meal
00:44:22.000 : en:Mr. World has someone on the inside
00:44:42.000 : en:Laura tries to warn Shadow
00:46:54.000 : en:The celebration turns deadly
00:52:14.000 : en:End Credits

Скриншоты

Скачать

Скачать торрент! Американские боги / American Gods / Сезон: 2 / Серии: 1-8 из 8 (Крис Бирн) [2019, фэнтези, драма, детектив, WEB-DL 1080p] DUB (Нота) + Original + Sub (Rus, Eng, Multi)

Как скачивать? · Что такое торрент? · Рейтинг и ограничения

Сайт не распространяет и не хранит электронные версии произведений, а лишь предоставляет доступ к создаваемому пользователями каталогу ссылок на торрент-файлы, которые содержат только списки хеш-сумм


_________________
ПУСТЬ ВАС НЕ СМУЩАЕТ ОТСУТСТВИЕ СИДОВ НА МОИХ РАЗДАЧАХ, РАЗДАЧИ МУЛЬТИТРЕКЕРНЫЕ СИДЫ (Раздающие) по DHT ЕСТЬ ВСЕГДА !!!!
[Профиль] [ЛС]
Показать сообщения:    
Ответить на тему

Текущее время: Сегодня 22:33

Часовой пояс: GMT + 4



Вы не можете начинать темы
Вы не можете отвечать на сообщения
Вы не можете редактировать свои сообщения
Вы не можете удалять свои сообщения
Вы не можете голосовать в опросах
Вы не можете прикреплять файлы к сообщениям
Вы не можете скачивать файлы