Перерождение / The Passage [S01] (2019) WEBRip | FOX

Ответить на тему
 
Автор Сообщение

Magnat ®

Пол:

Стаж: 5 лет 11 месяцев

Сообщений: 457

Откуда: Москва

Пост Пост: #1 от 09-Май-2019 18:25

[Цитировать]

Перерождение / The Passage [S01]- Страна: США
Производство: 20th Century Fox Television, Scott Free Productions, Selfish Mermaid
Год выпуска: 2019
Жанр: ужасы, фантастика, фэнтези, боевик, драма, приключения
Продолжительность: 10х ~00:45:00
Режиссеры: Джейсон Энслер, Эллисон Лидди
В ролях: Марк-Пол Госселаар, Санийя Сидни, Джейми МакШейн, Кэролайн Чикези, Эммануэль Шрики, Брианна Хоуи, МакКинли Белчер III-Действие разворачивается в постапокалиптическом будущем и охватывает тысячелетний период. В результате секретного правительственного эксперимента на свободе оказываются кровожадные вампиры, зараженные опасным вирусом. Остановить распространение болезни, грозящей уничтожить человеческий род, под силу лишь девочке-сироте по имени Эми, которая обладает странной властью над вирусом...
Перевод: Профессиональный (многоголосый, закадровый) | FOX
Субтитры: нет-Качество: WEBRip
Формат: AVI
Видео кодек: DivX 5
Аудио кодек: АС3
Видео: 720x400 (16:9), 23.976 fps, XviD build 65 ~1 347 kbps avg
Аудио №1: 48.0 kHz, AC3 Dolby Digital, 2/0 (L,R) ch, ~192 kbps | RUS
Аудио №2: 48.0 kHz, AC3 Dolby Digital, 2/0 (L,R) ch, ~192 kbps | ENG
Дата премьеры (мир): 14 января 2019

Media Info

General
Полное имя : 1x01 - Pilot (Пилот).avi
Формат : AVI
Формат/Информация : Audio Video Interleave
Размер файла : 553 Мбайт
Продолжительность : 44 м. 16 с.
Общий поток : 1746 Кбит/сек
Название фильма : Перерождение. Сезон 1 / The Passage. Season 1 (2019)
Программа кодирования : VirtualDubMod 1.5.10.2 (build 2540/release)
Библиотека кодирования : VirtualDubMod build 2540/release
Авторское право : miha2154
Видео
Идентификатор : 0
Формат : MPEG-4 Visual
Профиль формата : Advanced Simple@L5
Настройки формата : BVOP1 / Custom Matrix
Параметр BVOP формата : 1
Параметр QPel формата : Нет
Параметр GMC формата : Без точки перехода
Параметр матрицы формата : Выборочная
Идентификатор кодека : DX50
Идентификатор кодека/Подсказка : DivX 5
Продолжительность : 44 м. 16 с.
Битрейт : 1347 Кбит/сек
Ширина : 720 пикселей
Высота : 400 пикселей
Соотношение сторон : 16:9
Частота кадров : 23,976 (24000/1001) кадра/сек
Цветовое пространство : YUV
Субдискретизация насыщенности : 4:2:0
Битовая глубина : 8 бит
Тип развёртки : Прогрессивная
Метод сжатия : С потерями
Бит/(Пиксели*Кадры) : 0.195
Размер потока : 427 Мбайт (77%)
Библиотека кодирования : XviD 65
Аудио #1
Идентификатор : 1
Формат : AC-3
Формат/Информация : Audio Coding 3
Коммерческое название : Dolby Digital
Идентификатор кодека : 2000
Продолжительность : 44 м. 16 с.
Вид битрейта : Постоянный
Битрейт : 192 Кбит/сек
Каналы : 2 канала
Channel layout : L R
Частота : 48,0 КГц
Частота кадров : 31,250 кадров/сек (1536 SPF)
Битовая глубина : 16 бит
Метод сжатия : С потерями
Размер потока : 60,8 Мбайт (11%)
Выравнивание : Разделение по промежуткам
Продолжительность промежутка : 42 мс. (1,00 видеокадр)
Время предзагрузки промежутка : 500 мс.
Заголовок : Профессиональный (многоголосый, закадровый) FOX
Аудио #2
Идентификатор : 2
Формат : AC-3
Формат/Информация : Audio Coding 3
Коммерческое название : Dolby Digital
Идентификатор кодека : 2000
Продолжительность : 44 м. 16 с.
Вид битрейта : Постоянный
Битрейт : 192 Кбит/сек
Каналы : 2 канала
Channel layout : L R
Частота : 48,0 КГц
Частота кадров : 31,250 кадров/сек (1536 SPF)
Битовая глубина : 16 бит
Метод сжатия : С потерями
Размер потока : 60,8 Мбайт (11%)
Выравнивание : Разделение по промежуткам
Продолжительность промежутка : 42 мс. (1,00 видеокадр)
Время предзагрузки промежутка : 500 мс.
Заголовок : Английский

Скриншоты

Скачать

Скачать торрент! Перерождение / The Passage [S01] (2019) WEBRip | FOX

Как скачивать? · Что такое торрент? · Рейтинг и ограничения

Сайт не распространяет и не хранит электронные версии произведений, а лишь предоставляет доступ к создаваемому пользователями каталогу ссылок на торрент-файлы, которые содержат только списки хеш-сумм


_________________
ПУСТЬ ВАС НЕ СМУЩАЕТ ОТСУТСТВИЕ СИДОВ НА МОИХ РАЗДАЧАХ, РАЗДАЧИ МУЛЬТИТРЕКЕРНЫЕ СИДЫ (Раздающие) по DHT ЕСТЬ ВСЕГДА !!!!
[Профиль] [ЛС]
Показать сообщения:    
Ответить на тему

Текущее время: Сегодня 12:48

Часовой пояс: GMT + 4



Вы не можете начинать темы
Вы не можете отвечать на сообщения
Вы не можете редактировать свои сообщения
Вы не можете удалять свои сообщения
Вы не можете голосовать в опросах
Вы не можете прикреплять файлы к сообщениям
Вы не можете скачивать файлы