Американский соул / American Soul / Сезон: 1 / Серии: 1-10 (10) (Питер О’Фаллон / Peter O’Fallon) [2019, США, биография, WEBRip 1080p] MVO (TVShows) + Original + Eng Sub

Ответить на тему
 
Автор Сообщение

Magnat ®

Пол:

Стаж: 6 лет 6 месяцев

Сообщений: 453

Откуда: Москва

Пост Пост: #1 от 09-Май-2019 18:20

[Цитировать]

Американский соул / American Soul Год выпуска: 2019
Страна: США
Жанр: биография
Продолжительность: ~ 00:40:00
Перевод: Любительский (многоголосый закадровый)(TVShows)
Субтитры: нет
Режиссёр: Питер О’Фаллон / Peter O’Fallon
-В ролях:
Синква Уоллс, Джейсон Дирден, Джим Девоти, Перри Кэмпер, Алекса Уитакер, Филлип Маллингс мл., Индия МакГи, Янта Ричардсон, Кристофер Джефферсон, Джелани Уинстон
Описание:
Биографический сериал рассказывает о личной и профессиональной жизни американского антрепренёра, продюсера и телеведущего Дона Корнелиуса. В 1971 году с его подачи на американском телевидении появилась музыкальная программа Soul Train, в эфире которой транслировались выступления исполнителей разных музыкальных жанров: ритм-н-блюз, соул и хип-хоп, иногда фанк, джаз, диско и госпел. Шоу выходило в эфир до 2006 года, к тому моменту было снято более 1 100 выпусков.-Сэмпл: http://multi-up.com/1215085-Качество: WEBRip 1080p
Контейнер: MKV
Видео: MPEG-4 AVC, 1920x1080 (2.000), 23.976 fps, 6986 Kbps
Аудио 1: AC3, 48.0 KHz, 2 ch, 192 kbps [Rus]
Аудио 2: AAC, 48.0 KHz, 2 ch, 192 kbps [Eng]
Субтитры: Английские-Реклама: Без рекламы. Отсутствует

MI

General
Unique ID : 247812503144979229092013356653394210596 (0xBA6EF3B8E583040FCA7E14CB75032F24)
Complete name : E:\American.Soul.S01.1080p.TVShows\American.Soul.S01E01.1080p.TVShows.mkv
Format : Matroska
Format version : Version 4 / Version 2
File size : 2.06 GiB
Duration : 40 min 0 s
Overall bit rate : 7 378 kb/s
Encoded date : UTC 2019-04-15 06:36:48
Writing application : mkvmerge v31.0.0 ('Dolores In A Shoestand') 64-bit
Writing library : libebml v1.3.6 + libmatroska v1.4.9
Video
ID : 1
Format : AVC
Format/Info : Advanced Video Codec
Format profile : High@L4.1
Format settings : CABAC / 4 Ref Frames
Format settings, CABAC : Yes
Format settings, ReFrames : 4 frames
Format settings, GOP : M=3, N=4
Codec ID : V_MPEG4/ISO/AVC
Duration : 40 min 0 s
Bit rate : 6 986 kb/s
Width : 1 920 pixels
Height : 1 080 pixels
Display aspect ratio : 16:9
Frame rate mode : Constant
Frame rate : 29.970 (30000/1001) FPS
Color space : YUV
Chroma subsampling : 4:2:0
Bit depth : 8 bits
Scan type : Progressive
Bits/(Pixel*Frame) : 0.112
Stream size : 1.95 GiB (95%)
Language : English
Default : Yes
Forced : No
Color range : Limited
Color primaries : BT.709
Transfer characteristics : BT.709
Matrix coefficients : BT.709
Audio #1
ID : 2
Format : AC-3
Format/Info : Audio Coding 3
Codec ID : A_AC3
Duration : 40 min 0 s
Bit rate mode : Constant
Bit rate : 192 kb/s
Channel(s) : 2 channels
Channel positions : Front: L R
Sampling rate : 48.0 kHz
Frame rate : 31.250 FPS (1536 SPF)
Bit depth : 16 bits
Compression mode : Lossy
Stream size : 54.9 MiB (3%)
Title : TVShows
Language : Russian
Service kind : Complete Main
Default : Yes
Forced : Yes
Audio #2
ID : 3
Format : AAC
Format/Info : Advanced Audio Codec
Format profile : LC
Codec ID : A_AAC-2
Duration : 40 min 0 s
Bit rate : 192 kb/s
Channel(s) : 2 channels
Channel positions : Front: L R
Sampling rate : 48.0 kHz
Frame rate : 46.875 FPS (1024 SPF)
Compression mode : Lossy
Stream size : 56.0 MiB (3%)
Title : Original
Language : English
Default : No
Forced : No
Text
ID : 4
Format : UTF-8
Codec ID : S_TEXT/UTF8
Codec ID/Info : UTF-8 Plain Text
Duration : 38 min 25 s
Bit rate : 74 b/s
Count of elements : 633
Stream size : 21.0 KiB (0%)
Title : English
Language : English
Default : No
Forced : No
[/code]

Скриншоты

Скачать

Скачать торрент! Американский соул / American Soul / Сезон: 1 / Серии: 1-10 (10) (Питер О’Фаллон / Peter O’Fallon) [2019, США, биография, WEBRip 1080p] MVO (TVShows) + Original + Eng Sub

Как скачивать? · Что такое торрент? · Рейтинг и ограничения

Сайт не распространяет и не хранит электронные версии произведений, а лишь предоставляет доступ к создаваемому пользователями каталогу ссылок на торрент-файлы, которые содержат только списки хеш-сумм


_________________
ПУСТЬ ВАС НЕ СМУЩАЕТ ОТСУТСТВИЕ СИДОВ НА МОИХ РАЗДАЧАХ, РАЗДАЧИ МУЛЬТИТРЕКЕРНЫЕ СИДЫ (Раздающие) по DHT ЕСТЬ ВСЕГДА !!!!
[Профиль] [ЛС]
Показать сообщения:    
Ответить на тему

Текущее время: Сегодня 15:09

Часовой пояс: GMT + 4



Вы не можете начинать темы
Вы не можете отвечать на сообщения
Вы не можете редактировать свои сообщения
Вы не можете удалять свои сообщения
Вы не можете голосовать в опросах
Вы не можете прикреплять файлы к сообщениям
Вы не можете скачивать файлы