Покои (Сердце) / Chambers / Сезон: 1 / Серии: 1-10 из 10 (Сидни Фриланд, Альфонсо Гомес-Рехон, Дана Гонсалес) [2019, ужасы, фэнтези, драма, WEB-DL 1080p] MVO (Пифагор) + Original + Sub (Rus, Eng + multi)

Ответить на тему
 
Автор Сообщение

Magnat ®

Пол:

Стаж: 6 лет 5 месяцев

Сообщений: 453

Откуда: Москва

Пост Пост: #1 от 09-Май-2019 18:19

[Цитировать]

Покои / Chambers- - Год выпуска: 2019
Страна: США
Жанр: ужасы, фэнтези, драма
Продолжительность: 00:45:00
Перевод: Профессиональный (многоголосый закадровый) Пифагор
Режиссёр: Сидни Фриланд, Альфонсо Гомес-Рехон, Дана Гонсалес
В ролях: Сиван Алира Роуз, Гриффин Пауэлл-Арканд, Николас Голицын, Тони Голдуин, Маркус ЛаВой, Лиллия Рейд, Кайанна Симон, Ума Турман, Лилли Кей, Сара Меццанотте
Девушка, получившая в результате операции новое сердце, пытается раскрыть тайну происхождения органа и того, почему неожиданно скончался его предыдущий владелец. В ходе расследования она начинает постепенно меняться, словно перенимая странные и неприятные черты характера донора.

Качество: WEB-DL
Контейнер: MKV
Видео: AVC, 1920x1080 (16:9), ~4000 kbps, 23.976 fps
Аудио 1: AC3, 48 kHz, 6 ch, 384 kbps
Аудио 2: E-AC3 + Atmos, 48 kHz, 6 ch, 768 kbps
Субтитры: Русские (Forced, Full), английские (Full)
Реклама: Отсутствует

Список серий

01 Into the Void
02 Right to Know
03 Bad Inside
04 2 for 1
05 Murder on My Mind
06 With Grace and Gratitude
07 Trauma Bonding
08 Heroic Dose
09 In the Gloaming
10 The Crystal Organ

MediaInfo

Код:Полное имя : D:\RELEASE\Chambers.2019.S01.1080p.WEB-DL.Rus.Eng.EniaHD\Chambers.2019.S01E01.Into.the.Void.1080p.WEB-DL.Rus.Eng.EniaHD.mkv
Формат : Matroska
Версия формата : Version 4
Размер файла : 1,85 Гбайт
Продолжительность : 49 м. 5 с.
Режим общего битрейта : Переменный
Общий поток : 5390 Кбит/сек
Дата кодирования : UTC 2019-04-26 10:02:32
Программа кодирования : mkvmerge v32.0.0 ('Astral Progressions') 32-bit
Библиотека кодирования : libebml v1.3.7 + libmatroska v1.5.0
Обложка : Yes
Attachments : cover.chambers.jpg
Видео
Идентификатор : 1
Формат : AVC
Формат/Информация : Advanced Video Codec
Профиль формата : Main@L4
Настройки формата : CABAC / 3 Ref Frames
Параметр CABAC формата : Да
Параметр RefFrames формата : 3 кадра
Идентификатор кодека : V_MPEG4/ISO/AVC
Продолжительность : 49 м. 5 с.
Вид битрейта : Переменный
Битрейт : 4420 Кбит/сек
Максимальный битрейт : 6630 Кбит/сек
Ширина : 1920 пикселей
Высота : 1080 пикселей
Соотношение сторон : 16:9
Режим частоты кадров : Постоянный
Частота кадров : 23,976 (24000/1001) кадра/сек
Цветовое пространство : YUV
Субдискретизация насыщенности : 4:2:0
Битовая глубина : 8 бит
Тип развёртки : Прогрессивная
Бит/(Пиксели*Кадры) : 0.089
Размер потока : 1,45 Гбайт (79%)
Заголовок : Release by Zgurvas for EniaHD
Библиотека кодирования : x264 core 148 r2715 7e75228
Настройки программы : cabac=1 / ref=3 / deblock=1:0:0 / analyse=0x1:0x111 / me=umh / subme=10 / psy=1 / psy_rd=1.00:0.00 / mixed_ref=1 / me_range=24 / chroma_me=1 / trellis=2 / 8x8dct=0 / cqm=0 / deadzone=21,11 / fast_pskip=1 / chroma_qp_offset=-2 / threads=8 / lookahead_threads=1 / sliced_threads=0 / nr=0 / decimate=1 / interlaced=0 / bluray_compat=0 / stitchable=1 / constrained_intra=0 / bframes=2 / b_pyramid=0 / b_adapt=2 / b_bias=0 / direct=3 / weightb=1 / open_gop=0 / weightp=2 / keyint=48 / keyint_min=25 / scenecut=0 / intra_refresh=0 / rc_lookahead=48 / rc=2pass / mbtree=1 / bitrate=4420 / ratetol=1.0 / qcomp=0.50 / qpmin=6 / qpmax=51 / qpstep=4 / cplxblur=20.0 / qblur=0.5 / vbv_maxrate=6630 / vbv_bufsize=8840 / nal_hrd=vbr / filler=0 / ip_ratio=1.40 / aq=1:1.00
Язык : English
Default : Да
Forced : Нет
Аудио #1
Идентификатор : 2
Формат : AC-3
Формат/Информация : Audio Coding 3
Коммерческое название : Dolby Digital
Идентификатор кодека : A_AC3
Продолжительность : 49 м. 5 с.
Вид битрейта : Постоянный
Битрейт : 384 Кбит/сек
Каналы : 6 каналов
Channel layout : L R C LFE Ls Rs
Частота : 48,0 КГц
Частота кадров : 31,250 кадров/сек (1536 SPF)
Битовая глубина : 16 бит
Метод сжатия : С потерями
Размер потока : 135 Мбайт (7%)
Заголовок : AC3 5.1 @ 384 kbps - MVO, Pythagor
Язык : Russian
ServiceKind/String : Complete Main
Default : Да
Forced : Нет
Аудио #2
Идентификатор : 3
Формат : E-AC-3 JOC
Формат/Информация : Enhanced AC-3 with Joint Object Coding
Коммерческое название : Dolby Digital Plus with Dolby Atmos
Идентификатор кодека : A_EAC3
Продолжительность : 49 м. 5 с.
Вид битрейта : Постоянный
Битрейт : 768 Кбит/сек
Каналы : 6 каналов
Channel layout : L R C LFE Ls Rs
Частота : 48,0 КГц
Частота кадров : 31,250 кадров/сек (1536 SPF)
Метод сжатия : С потерями
Размер потока : 270 Мбайт (14%)
Заголовок : E-AC3 + Atmos 5.1 @ 768 kbps - Original
Язык : English
ServiceKind/String : Complete Main
Default : Нет
Forced : Нет
Complexity index : 16
Number of dynamic objects : 15
Bed channel count : 1 канал
Bed channel configuration : LFE
Текст #1
Идентификатор : 4
Формат : UTF-8
Идентификатор кодека : S_TEXT/UTF8
Идентификатор кодека/Информация : UTF-8 Plain Text
Продолжительность : 48 м. 11 с.
Битрейт : 1 бит/сек
ElementCount : 12
Размер потока : 585 байт (0%)
Заголовок : Forced
Язык : Russian
Default : Да
Forced : Да
Текст #2
Идентификатор : 5
Формат : UTF-8
Идентификатор кодека : S_TEXT/UTF8
Идентификатор кодека/Информация : UTF-8 Plain Text
Продолжительность : 45 м. 4 с.
Битрейт : 74 бит/сек
ElementCount : 506
Размер потока : 24,5 Кбайт (0%)
Заголовок : Full
Язык : Russian
Default : Нет
Forced : Нет
Текст #3
Идентификатор : 6
Формат : UTF-8
Идентификатор кодека : S_TEXT/UTF8
Идентификатор кодека/Информация : UTF-8 Plain Text
Продолжительность : 44 м. 41 с.
Битрейт : 52 бит/сек
ElementCount : 536
Размер потока : 17,1 Кбайт (0%)
Заголовок : Full
Язык : English
Default : Нет
Forced : Нет
Текст #4
Идентификатор : 7
Формат : UTF-8
Идентификатор кодека : S_TEXT/UTF8
Идентификатор кодека/Информация : UTF-8 Plain Text
Продолжительность : 45 м. 34 с.
Битрейт : 57 бит/сек
ElementCount : 608
Размер потока : 19,1 Кбайт (0%)
Заголовок : Full SDH
Язык : English
Default : Нет
Forced : Нет
Текст #5
Идентификатор : 8
Формат : UTF-8
Идентификатор кодека : S_TEXT/UTF8
Идентификатор кодека/Информация : UTF-8 Plain Text
Продолжительность : 45 м. 4 с.
Битрейт : 83 бит/сек
ElementCount : 513
Размер потока : 27,6 Кбайт (0%)
Язык : Arabic
Default : Нет
Forced : Нет
Текст #6
Идентификатор : 9
Формат : UTF-8
Идентификатор кодека : S_TEXT/UTF8
Идентификатор кодека/Информация : UTF-8 Plain Text
Продолжительность : 45 м. 3 с.
Битрейт : 47 бит/сек
ElementCount : 497
Размер потока : 15,8 Кбайт (0%)
Язык : Czech
Default : Нет
Forced : Нет
Текст #7
Идентификатор : 10
Формат : UTF-8
Идентификатор кодека : S_TEXT/UTF8
Идентификатор кодека/Информация : UTF-8 Plain Text
Продолжительность : 45 м. 4 с.
Битрейт : 42 бит/сек
ElementCount : 490
Размер потока : 14,0 Кбайт (0%)
Язык : Danish
Default : Нет
Forced : Нет
Текст #8
Идентификатор : 11
Формат : UTF-8
Идентификатор кодека : S_TEXT/UTF8
Идентификатор кодека/Информация : UTF-8 Plain Text
Продолжительность : 45 м. 4 с.
Битрейт : 42 бит/сек
ElementCount : 478
Размер потока : 14,1 Кбайт (0%)
Язык : German
Default : Нет
Forced : Нет
Текст #9
Идентификатор : 12
Формат : UTF-8
Идентификатор кодека : S_TEXT/UTF8
Идентификатор кодека/Информация : UTF-8 Plain Text
Продолжительность : 45 м. 4 с.
Битрейт : 74 бит/сек
ElementCount : 489
Размер потока : 24,5 Кбайт (0%)
Язык : Greek
Default : Нет
Forced : Нет
Текст #10
Идентификатор : 13
Формат : UTF-8
Идентификатор кодека : S_TEXT/UTF8
Идентификатор кодека/Информация : UTF-8 Plain Text
Продолжительность : 45 м. 4 с.
Битрейт : 43 бит/сек
ElementCount : 502
Размер потока : 14,4 Кбайт (0%)
Язык : Spanish
Default : Нет
Forced : Нет
Текст #11
Идентификатор : 14
Формат : UTF-8
Идентификатор кодека : S_TEXT/UTF8
Идентификатор кодека/Информация : UTF-8 Plain Text
Продолжительность : 45 м. 4 с.
Битрейт : 42 бит/сек
ElementCount : 508
Размер потока : 14,1 Кбайт (0%)
Заголовок : European
Язык : Spanish
Default : Нет
Forced : Нет
Текст #12
Идентификатор : 15
Формат : UTF-8
Идентификатор кодека : S_TEXT/UTF8
Идентификатор кодека/Информация : UTF-8 Plain Text
Продолжительность : 45 м. 4 с.
Битрейт : 41 бит/сек
ElementCount : 375
Размер потока : 13,7 Кбайт (0%)
Язык : Finnish
Default : Нет
Forced : Нет
Текст #13
Идентификатор : 16
Формат : UTF-8
Идентификатор кодека : S_TEXT/UTF8
Идентификатор кодека/Информация : UTF-8 Plain Text
Продолжительность : 45 м. 4 с.
Битрейт : 44 бит/сек
ElementCount : 503
Размер потока : 14,8 Кбайт (0%)
Язык : French
Default : Нет
Forced : Нет
Текст #14
Идентификатор : 17
Формат : UTF-8
Идентификатор кодека : S_TEXT/UTF8
Идентификатор кодека/Информация : UTF-8 Plain Text
Продолжительность : 45 м. 4 с.
Битрейт : 70 бит/сек
ElementCount : 508
Размер потока : 23,4 Кбайт (0%)
Язык : Hebrew
Default : Нет
Forced : Нет
Текст #15
Идентификатор : 18
Формат : UTF-8
Идентификатор кодека : S_TEXT/UTF8
Идентификатор кодека/Информация : UTF-8 Plain Text
Продолжительность : 45 м. 4 с.
Битрейт : 45 бит/сек
ElementCount : 507
Размер потока : 14,9 Кбайт (0%)
Язык : Hungarian
Default : Нет
Forced : Нет
Текст #16
Идентификатор : 19
Формат : UTF-8
Идентификатор кодека : S_TEXT/UTF8
Идентификатор кодека/Информация : UTF-8 Plain Text
Продолжительность : 45 м. 3 с.
Битрейт : 45 бит/сек
ElementCount : 508
Размер потока : 14,9 Кбайт (0%)
Язык : Indonesian
Default : Нет
Forced : Нет
Текст #17
Идентификатор : 20
Формат : UTF-8
Идентификатор кодека : S_TEXT/UTF8
Идентификатор кодека/Информация : UTF-8 Plain Text
Продолжительность : 45 м. 4 с.
Битрейт : 43 бит/сек
ElementCount : 471
Размер потока : 14,5 Кбайт (0%)
Язык : Italian
Default : Нет
Forced : Нет
Текст #18
Идентификатор : 21
Формат : UTF-8
Идентификатор кодека : S_TEXT/UTF8
Идентификатор кодека/Информация : UTF-8 Plain Text
Продолжительность : 45 м. 4 с.
Битрейт : 41 бит/сек
ElementCount : 484
Размер потока : 13,9 Кбайт (0%)
Язык : Japanese
Default : Нет
Forced : Нет
Текст #19
Идентификатор : 22
Формат : UTF-8
Идентификатор кодека : S_TEXT/UTF8
Идентификатор кодека/Информация : UTF-8 Plain Text
Продолжительность : 45 м. 3 с.
Битрейт : 52 бит/сек
ElementCount : 507
Размер потока : 17,3 Кбайт (0%)
Язык : Korean
Default : Нет
Forced : Нет
Текст #20
Идентификатор : 23
Формат : UTF-8
Идентификатор кодека : S_TEXT/UTF8
Идентификатор кодека/Информация : UTF-8 Plain Text
Продолжительность : 45 м. 4 с.
Битрейт : 46 бит/сек
ElementCount : 510
Размер потока : 15,4 Кбайт (0%)
Язык : Norwegian Bokmal
Default : Нет
Forced : Нет
Текст #21
Идентификатор : 24
Формат : UTF-8
Идентификатор кодека : S_TEXT/UTF8
Идентификатор кодека/Информация : UTF-8 Plain Text
Продолжительность : 45 м. 4 с.
Битрейт : 36 бит/сек
ElementCount : 412
Размер потока : 12,1 Кбайт (0%)
Язык : Dutch
Default : Нет
Forced : Нет
Текст #22
Идентификатор : 25
Формат : UTF-8
Идентификатор кодека : S_TEXT/UTF8
Идентификатор кодека/Информация : UTF-8 Plain Text
Продолжительность : 45 м. 4 с.
Битрейт : 38 бит/сек
ElementCount : 470
Размер потока : 12,7 Кбайт (0%)
Язык : Polish
Default : Нет
Forced : Нет
Текст #23
Идентификатор : 26
Формат : UTF-8
Идентификатор кодека : S_TEXT/UTF8
Идентификатор кодека/Информация : UTF-8 Plain Text
Продолжительность : 45 м. 4 с.
Битрейт : 44 бит/сек
ElementCount : 496
Размер потока : 14,8 Кбайт (0%)
Язык : Portuguese
Default : Нет
Forced : Нет
Текст #24
Идентификатор : 27
Формат : UTF-8
Идентификатор кодека : S_TEXT/UTF8
Идентификатор кодека/Информация : UTF-8 Plain Text
Продолжительность : 45 м. 4 с.
Битрейт : 46 бит/сек
ElementCount : 510
Размер потока : 15,2 Кбайт (0%)
Заголовок : Brazilian
Язык : Portuguese
Default : Нет
Forced : Нет
Текст #25
Идентификатор : 28
Формат : UTF-8
Идентификатор кодека : S_TEXT/UTF8
Идентификатор кодека/Информация : UTF-8 Plain Text
Продолжительность : 45 м. 4 с.
Битрейт : 46 бит/сек
ElementCount : 495
Размер потока : 15,4 Кбайт (0%)
Язык : Romanian
Default : Нет
Forced : Нет
Текст #26
Идентификатор : 29
Формат : UTF-8
Идентификатор кодека : S_TEXT/UTF8
Идентификатор кодека/Информация : UTF-8 Plain Text
Продолжительность : 45 м. 4 с.
Битрейт : 39 бит/сек
ElementCount : 438
Размер потока : 13,2 Кбайт (0%)
Язык : Swedish
Default : Нет
Forced : Нет
Текст #27
Идентификатор : 30
Формат : UTF-8
Идентификатор кодека : S_TEXT/UTF8
Идентификатор кодека/Информация : UTF-8 Plain Text
Продолжительность : 45 м. 4 с.
Битрейт : 109 бит/сек
ElementCount : 515
Размер потока : 36,0 Кбайт (0%)
Язык : Thai
Default : Нет
Forced : Нет
Текст #28
Идентификатор : 31
Формат : UTF-8
Идентификатор кодека : S_TEXT/UTF8
Идентификатор кодека/Информация : UTF-8 Plain Text
Продолжительность : 45 м. 4 с.
Битрейт : 44 бит/сек
ElementCount : 505
Размер потока : 14,7 Кбайт (0%)
Язык : Turkish
Default : Нет
Forced : Нет
Текст #29
Идентификатор : 32
Формат : UTF-8
Идентификатор кодека : S_TEXT/UTF8
Идентификатор кодека/Информация : UTF-8 Plain Text
Продолжительность : 45 м. 4 с.
Битрейт : 67 бит/сек
ElementCount : 513
Размер потока : 22,1 Кбайт (0%)
Язык : Vietnamese
Default : Нет
Forced : Нет
Текст #30
Идентификатор : 33
Формат : UTF-8
Идентификатор кодека : S_TEXT/UTF8
Идентификатор кодека/Информация : UTF-8 Plain Text
Продолжительность : 45 м. 4 с.
Битрейт : 49 бит/сек
ElementCount : 496
Размер потока : 16,3 Кбайт (0%)
Заголовок : Simplified
Язык : Chinese
Default : Нет
Forced : Нет
Текст #31
Идентификатор : 34
Формат : UTF-8
Идентификатор кодека : S_TEXT/UTF8
Идентификатор кодека/Информация : UTF-8 Plain Text
Продолжительность : 45 м. 4 с.
Битрейт : 47 бит/сек
ElementCount : 527
Размер потока : 15,8 Кбайт (0%)
Заголовок : Traditional
Язык : Chinese
Default : Нет
Forced : Нет

Скриншоты


Скачать

Скачать торрент! Покои (Сердце) / Chambers / Сезон: 1 / Серии: 1-10 из 10 (Сидни Фриланд, Альфонсо Гомес-Рехон, Дана Гонсалес) [2019, ужасы, фэнтези, драма, WEB-DL 1080p] MVO (Пифагор) + Original + Sub (Rus, Eng + multi)

Как скачивать? · Что такое торрент? · Рейтинг и ограничения

Сайт не распространяет и не хранит электронные версии произведений, а лишь предоставляет доступ к создаваемому пользователями каталогу ссылок на торрент-файлы, которые содержат только списки хеш-сумм


_________________
ПУСТЬ ВАС НЕ СМУЩАЕТ ОТСУТСТВИЕ СИДОВ НА МОИХ РАЗДАЧАХ, РАЗДАЧИ МУЛЬТИТРЕКЕРНЫЕ СИДЫ (Раздающие) по DHT ЕСТЬ ВСЕГДА !!!!
[Профиль] [ЛС]
Показать сообщения:    
Ответить на тему

Текущее время: Сегодня 12:06

Часовой пояс: GMT + 4



Вы не можете начинать темы
Вы не можете отвечать на сообщения
Вы не можете редактировать свои сообщения
Вы не можете удалять свои сообщения
Вы не можете голосовать в опросах
Вы не можете прикреплять файлы к сообщениям
Вы не можете скачивать файлы