Тёмная материя / Чёрная материя / Dark Matter / Сезон: 1-3 из 3 / Серии: 1-39 из 39 (Рон Мерфи, Брюс МакДональд, Джон Стэд) [2015-2017, Канада, фантастика, триллер, драма, WEB-DLRip] MVO (LostFilm)

Ответить на тему
 
Автор Сообщение

Magnat ®

Пол:

Стаж: 6 лет 5 месяцев

Сообщений: 453

Откуда: Москва

Пост Пост: #1 от 09-Май-2019 18:13

[Цитировать]

Тёмная материя / Чёрная материя / Dark Matter Год выпуска: 2015 - 2017
Страна: Канада
Жанр: фантастика, триллер, драма
Продолжительность: 00:43:06
Перевод: Профессиональный (многоголосый закадровый) - LostFilm
Режиссёр: Рон Мерфи, Брюс МакДональд, Джон Стэд
В ролях: Мелисса О’Нил, Энтони Лемке, Алекс Маллари мл., Джоделль Ферланд, Роджер Р. Кросс, Зои Палмер, Марк Бендавид, Мелани Либёрд, Шон Сайпос, Дэвид Хьюлетт-Описание: Экипаж заброшенного космического корабля пробуждается от анабиоза, без воспоминаний о том, кто они и как они поднялись на борт. Сталкиваясь с угрозами на каждом шагу, они должны работать вместе, чтобы выжить. Их путешествие наполнено местью, предательством и скрытыми тайнами.
Сэмпл
Качество: WEB-DLRip
Формат: AVI
Видео: 704x400 (1.76:1), 23.976 fps, XviD build 73 ~2000 kbps avg, 0.30 bit/pixel
Аудио: 48 kHz, AC3 Dolby Digital, 3/2 (L,C,R,l,r) + LFE ch, ~384 kbps
Субтитры: отсутствуют
Реклама: нет

Список серий

Сезон 01
01 (01) - Эпизод первый / Episod One
02 (02) - Эпизод второй / Episod Two
03 (03) - Эпизод третий / Episod Three
04 (04) - Эпизод четвертый / Episod Four
05 (05) - Эпизод пятый / Episod Five
06 (06) - Эпизод шестой / Episod Six
07 (07) - Эпизод седьмой / Episod Seven
08 (08) - Эпизод восьмой / Episod Eight
09 (09) - Эпизод девятый / Episod Nine
10 (10) - Эпизод десятый / Episod Then
11 (11) - Эпизод одиннадцатый / Episod Eleven
12 (12) - Эпизод двенадцатый / Episod Twelve
13 (13) - Эпизод тринадцатый / Episod Thirteen
Сезон 02
01 (14) - Добро пожаловать в новый дом / Welcome to Your New Home
02 (15) - Убей их всех! / Kill Them All
03 (16) - Я знала тебя совсем другой / I've Seen the Other Side of You
04 (17) - Мы были семьей / We Were Family
05 (18) - Мы решили тебя не убивать / We Voted Not to Space You
06 (19) - Мы должны были это предвидеть / We Should Have Seen This
07 (20) - Она теперь одна из них / She’s One of Them Now
08 (21) - Грабежи, убийства / Stuff to Steal, People to Kill
09 (22) - Погибнуть в бою / Going Out Fighting
10 (23) - Стреляй / Take the shot
11 (24) - Надо было выкинуть тебя в космос / Wish I'd Spaced You When I Had the Chance
12 (25) - Иногда в жизни у тебя выбора действительно нет / Sometimes In Life You Don't Get to Choose
13 (26) - Первое, мы спасаем Галактику / But First, We Save the Galaxy
Сезон 03
01 (27) - Быть хорошими так тяжело / Being Better Is So Much Harder
02 (28) - Не надо так / It Doesn't Have To Be Like This
03 (29) - Добро пожаловать в революцию / Welcome to the Revolution
04 (30) - Времени хоть отбавляй / All the Time in the World
05 (31) - Обломись, принцесса! / Give It Up, Princess
06 (32) - Последний козырь / One Last Card to Play
07 (33) - Увы, я тебе не верю / Wish I Could Believe You
08 (34) - Горячий шоколад / Hot Chocolate
09 (35) - Разве это не парадокс? / Isn’t That a Paradox?
10 (36) - Не рождена, а собрана / Built, Not Born
11 (37) - Заговор «Карликовой звезды» / The Dwarf Star Conspiracy
12 (38) - Мой последний подарок / My Final Gift to You
13 (39) - Некуда податься / Nowhere to Go

MediaInfo

General
Complete name : H:\Dark.Matter.2015-2017.web-dlrip_[teko]\Season_01\s01e07_Episode.Seven.avi
Format : AVI
Format/Info : Audio Video Interleave
File size : 738 MiB
Duration : 43mn 6s
Overall bit rate : 2 392 Kbps
Writing application : VirtualDubMod 1.5.10.3 | www.virtualdub-fr.org || (build 2550/release)
Writing library : VirtualDubMod build 2550/release
Video
ID : 0
Format : MPEG-4 Visual
Format profile : Advanced Simple@L5
Format settings, BVOP : 2
Format settings, QPel : No
Format settings, GMC : No warppoints
Format settings, Matrix : Custom
Codec ID : XVID
Codec ID/Hint : XviD
Duration : 43mn 6s
Bit rate : 1 999 Kbps
Width : 704 pixels
Height : 400 pixels
Display aspect ratio : 16:9
Frame rate : 23.976 (23976/1000) fps
Color space : YUV
Chroma subsampling : 4:2:0
Bit depth : 8 bits
Scan type : Progressive
Compression mode : Lossy
Bits/(Pixel*Frame) : 0.296
Stream size : 616 MiB (84%)
Writing library : XviD 73
Audio
ID : 1
Format : AC-3
Format/Info : Audio Coding 3
Mode extension : CM (complete main)
Format settings, Endianness : Big
Codec ID : 2000
Duration : 43mn 5s
Bit rate mode : Constant
Bit rate : 384 Kbps
Channel(s) : 6 channels
Channel positions : Front: L C R, Side: L R, LFE
Sampling rate : 48.0 KHz
Frame rate : 31.250 fps (1536 spf)
Compression mode : Lossy
Stream size : 118 MiB (16%)
Alignment : Split accross interleaves
Interleave, duration : 42 ms (1.00 video frame)
Interleave, preload duratio : 500 ms
Скачать

Скачать торрент! Тёмная материя / Чёрная материя / Dark Matter / Сезон: 1-3 из 3 / Серии: 1-39 из 39 (Рон Мерфи, Брюс МакДональд, Джон Стэд) [2015-2017, Канада, фантастика, триллер, драма, WEB-DLRip] MVO (LostFilm)

Как скачивать? · Что такое торрент? · Рейтинг и ограничения

Сайт не распространяет и не хранит электронные версии произведений, а лишь предоставляет доступ к создаваемому пользователями каталогу ссылок на торрент-файлы, которые содержат только списки хеш-сумм


_________________
ПУСТЬ ВАС НЕ СМУЩАЕТ ОТСУТСТВИЕ СИДОВ НА МОИХ РАЗДАЧАХ, РАЗДАЧИ МУЛЬТИТРЕКЕРНЫЕ СИДЫ (Раздающие) по DHT ЕСТЬ ВСЕГДА !!!!
[Профиль] [ЛС]
Показать сообщения:    
Ответить на тему

Текущее время: Сегодня 11:32

Часовой пояс: GMT + 4



Вы не можете начинать темы
Вы не можете отвечать на сообщения
Вы не можете редактировать свои сообщения
Вы не можете удалять свои сообщения
Вы не можете голосовать в опросах
Вы не можете прикреплять файлы к сообщениям
Вы не можете скачивать файлы