Мёртв для меня / Dead to Me / Сезон: 1 / Серии: 1-10 из 10 (Кэт Койро, Гита Патель, Эми Йорк Рубин) [2019, комедия, WEB-DL 1080p] DUB (Пифагор) + Original + Sub (Rus, Eng)

Ответить на тему
 
Автор Сообщение

Magnat ®

Пол:

Стаж: 5 лет 11 месяцев

Сообщений: 457

Откуда: Москва

Пост Пост: #1 от 09-Май-2019 18:12

[Цитировать]

Мёртв для меня / Dead to Me- - Год выпуска: 2019
Страна: США
Жанр: комедия
Продолжительность: 00:30:00
Перевод: Профессиональный (дублированный) Пифагор
Режиссёр: Кэт Койро, Гита Патель, Эми Йорк Рубин
В ролях: Кристина Эпплгейт, Линда Карделлини, Эдвард Эснер, Макс Дженкинс, Джеймс Марсден, Сэм МакКарти, Люк Росслер, Диана-Мария Рива, Кеонг Сим, Хейли Симс-Сюжет повествует о возникшей дружбе между взбалмошной холостячкой с шокирующим прошлым и очень нервной вдовой с черным юмором и проблемами с управлением гневом.

Качество: WEB-DL 1080p
Контейнер: MKV
Видео: AVC, 1920x1080 (16:9), ~2800 kbps, 23.976 fps
Аудио 1: E-AC3, 48 kHz, 6 ch, 640 kbps
Аудио 2: E-AC3, 48 kHz, 6 ch, 640 kbps
Субтитры: Русские (Forced, Full), английские (SDH)
Реклама: Отсутствует

Список серий

01 Pilot
02 Maybe I'm Crazy
03 It's All My Fault
04 I Can't Go Back
05 I've Gotta Get Away
06 Oh My God
07 I Can Handle It
08 Try To Stop Me
09 I Have To Be Honest
10 You Have To Go

MediaInfo

Код:Полное имя : D:\RELEASE\Dead.to.Me.S01.1080p.WEB-DL.DUB.EniaHD\Dead.to.Me.S01E01.Pilot.1080p.WEB-DL.DUB.EniaHD.mkv
Формат : Matroska
Версия формата : Version 4
Размер файла : 952 Мбайт
Продолжительность : 33 м. 46 с.
Режим общего битрейта : Переменный
Общий поток : 3939 Кбит/сек
Дата кодирования : UTC 2019-05-03 11:01:56
Программа кодирования : mkvmerge v32.0.0 ('Astral Progressions') 32-bit
Библиотека кодирования : libebml v1.3.7 + libmatroska v1.5.0
Attachments : poster.jpg
Видео
Идентификатор : 1
Формат : AVC
Формат/Информация : Advanced Video Codec
Профиль формата : Main@L4
Настройки формата : CABAC / 3 Ref Frames
Параметр CABAC формата : Да
Параметр RefFrames формата : 3 кадра
Идентификатор кодека : V_MPEG4/ISO/AVC
Продолжительность : 33 м. 46 с.
Вид битрейта : Переменный
Битрейт : 2740 Кбит/сек
Максимальный битрейт : 4110 Кбит/сек
Ширина : 1920 пикселей
Высота : 1080 пикселей
Соотношение сторон : 16:9
Режим частоты кадров : Постоянный
Частота кадров : 23,976 (24000/1001) кадра/сек
Цветовое пространство : YUV
Субдискретизация насыщенности : 4:2:0
Битовая глубина : 8 бит
Тип развёртки : Прогрессивная
Бит/(Пиксели*Кадры) : 0.055
Размер потока : 641 Мбайт (67%)
Библиотека кодирования : x264 core 148 r2715 7e75228
Настройки программы : cabac=1 / ref=3 / deblock=1:0:0 / analyse=0x1:0x111 / me=umh / subme=10 / psy=1 / psy_rd=1.00:0.00 / mixed_ref=1 / me_range=24 / chroma_me=1 / trellis=2 / 8x8dct=0 / cqm=0 / deadzone=21,11 / fast_pskip=1 / chroma_qp_offset=-2 / threads=8 / lookahead_threads=1 / sliced_threads=0 / nr=0 / decimate=1 / interlaced=0 / bluray_compat=0 / stitchable=1 / constrained_intra=0 / bframes=2 / b_pyramid=0 / b_adapt=2 / b_bias=0 / direct=3 / weightb=1 / open_gop=0 / weightp=2 / keyint=48 / keyint_min=25 / scenecut=0 / intra_refresh=0 / rc_lookahead=48 / rc=2pass / mbtree=1 / bitrate=2740 / ratetol=1.0 / qcomp=0.50 / qpmin=6 / qpmax=51 / qpstep=4 / cplxblur=20.0 / qblur=0.5 / vbv_maxrate=4110 / vbv_bufsize=5480 / nal_hrd=vbr / filler=0 / ip_ratio=1.40 / aq=1:1.00
Язык : English
Default : Да
Forced : Нет
Аудио #1
Идентификатор : 2
Формат : E-AC-3
Формат/Информация : Enhanced AC-3
Коммерческое название : Dolby Digital Plus
Идентификатор кодека : A_EAC3
Продолжительность : 33 м. 46 с.
Вид битрейта : Постоянный
Битрейт : 640 Кбит/сек
Каналы : 6 каналов
ChannelLayout : L R C LFE Ls Rs
Частота : 48,0 КГц
Частота кадров : 31,250 кадров/сек (1536 SPF)
Метод сжатия : С потерями
Размер потока : 155 Мбайт (16%)
Заголовок : E-AC3 5.1 @ 640 kbps - DUB, Pythagor
Язык : Russian
ServiceKind/String : Complete Main
Default : Да
Forced : Нет
Аудио #2
Идентификатор : 3
Формат : E-AC-3
Формат/Информация : Enhanced AC-3
Коммерческое название : Dolby Digital Plus
Идентификатор кодека : A_EAC3
Продолжительность : 33 м. 46 с.
Вид битрейта : Постоянный
Битрейт : 640 Кбит/сек
Каналы : 6 каналов
ChannelLayout : L R C LFE Ls Rs
Частота : 48,0 КГц
Частота кадров : 31,250 кадров/сек (1536 SPF)
Метод сжатия : С потерями
Размер потока : 155 Мбайт (16%)
Заголовок : E-AC3 5.1 @ 640 kbps - Original
Язык : English
ServiceKind/String : Complete Main
Default : Нет
Forced : Нет
Текст #1
Идентификатор : 4
Формат : UTF-8
Идентификатор кодека : S_TEXT/UTF8
Идентификатор кодека/Информация : UTF-8 Plain Text
Продолжительность : 32 м. 59 с.
Битрейт : 1 бит/сек
ElementCount : 9
Размер потока : 362 байт (0%)
Заголовок : Forced
Язык : Russian
Default : Да
Forced : Да
Текст #2
Идентификатор : 5
Формат : UTF-8
Идентификатор кодека : S_TEXT/UTF8
Идентификатор кодека/Информация : UTF-8 Plain Text
Продолжительность : 32 м. 59 с.
Битрейт : 92 бит/сек
ElementCount : 490
Размер потока : 22,4 Кбайт (0%)
Заголовок : Full
Язык : Russian
Default : Нет
Forced : Нет
Текст #3
Идентификатор : 6
Формат : UTF-8
Идентификатор кодека : S_TEXT/UTF8
Идентификатор кодека/Информация : UTF-8 Plain Text
Продолжительность : 32 м. 55 с.
Битрейт : 75 бит/сек
ElementCount : 610
Размер потока : 18,2 Кбайт (0%)
Заголовок : Full SDH
Язык : English
Default : Нет
Forced : Нет

Скриншоты


Скачать

Скачать торрент! Мёртв для меня / Dead to Me / Сезон: 1 / Серии: 1-10 из 10 (Кэт Койро, Гита Патель, Эми Йорк Рубин) [2019, комедия, WEB-DL 1080p] DUB (Пифагор) + Original + Sub (Rus, Eng)

Как скачивать? · Что такое торрент? · Рейтинг и ограничения

Сайт не распространяет и не хранит электронные версии произведений, а лишь предоставляет доступ к создаваемому пользователями каталогу ссылок на торрент-файлы, которые содержат только списки хеш-сумм


_________________
ПУСТЬ ВАС НЕ СМУЩАЕТ ОТСУТСТВИЕ СИДОВ НА МОИХ РАЗДАЧАХ, РАЗДАЧИ МУЛЬТИТРЕКЕРНЫЕ СИДЫ (Раздающие) по DHT ЕСТЬ ВСЕГДА !!!!
[Профиль] [ЛС]
Показать сообщения:    
Ответить на тему

Текущее время: Сегодня 13:13

Часовой пояс: GMT + 4



Вы не можете начинать темы
Вы не можете отвечать на сообщения
Вы не можете редактировать свои сообщения
Вы не можете удалять свои сообщения
Вы не можете голосовать в опросах
Вы не можете прикреплять файлы к сообщениям
Вы не можете скачивать файлы