Притворство / Акт / The Act / Сезон: 1 / Серии: 1-8 из 8 (Лор де Клермон-Тоннер, Кристина Чоу, Стивен Пит) [2019, США, Криминал, драма WEBRip] MVO (Profix Media) + Original

Ответить на тему
 
Автор Сообщение

Magnat ®

Пол:

Стаж: 6 лет 5 месяцев

Сообщений: 453

Откуда: Москва

Пост Пост: #1 от 09-Май-2019 18:11

[Цитировать]

ПРИТВОРСТВОThe Act- Год выпуска: 2019
Страна: США
Жанр: Криминал, драма
Продолжительность: ~00:55:00
Перевод: Профессиональный (многоголосый закадровый) Студия «Profix Media»-Режиссёр: Лор де Клермон-Тоннер, Кристина Чоу, Стивен Пит
В ролях: Патриция Аркетт, Джои Кинг, Анна-София Робб, Хлоя Севиньи, Кэлам Уорси, Элизабет Бонд, Александрия Деберри, Патриция Френч, Мэри Холлис Инбоден, Джошуа Микель-Сериал-антология «Акт» - сборник реальных криминальных историй, поражающих воображение. Каждая из них закончилась преступлением, к которому привела определенная цепь событий. Первый сезон основан на статье с новостного портала Buzzfeed, написанной журналисткой Мишель Дин в 2016 году и называвшейся «Ди-Ди хотела, чтобы ее дочь заболела, а Джипси хотела, чтобы ее мать убили».
В центре сюжета совсем юная девушка по имени Джипси Бланшар, которая пыталась избавиться от слишком заботливой и навязчивой матери. Ее отчаянное стремление к независимости постепенно открывает ящик Пандоры, наполненный мрачными тайнами с виду этой благополучной семьи. Джипси была веселой, общительной и доброй девочкой, несмотря на то, что была прикована к инвалидной коляске.
Ее внимательная и харизматичная мама Ди-Ди всегда была рядом с ней. Но когда в ее дочери стала просыпаться подростковая сексуальность, она решает восстать против чрезмерной материнской опеки. В конечном итоге сложившаяся ситуация между матерью и дочерью приводит к ...-Доп. информация: Без рекламных ВидеоАудио вставок
Сэмпл-Качество: WEBRip
Формат: AVI
Видео: XviD, 720x304 (2,35:1), 23,976 fps, ~1400 kbps
Аудио Rus.: MP3, 48 kHz, 2 ch, 128 kbps
Аудио Eng.: MP3, 48 kHz, 2 ch, 128 kbps
Субтитры: отсутствуют
Реклама: отсутствует

MediaInfo

Код:Полное имя : The.Act.S01.WEBRip.RusEng.Profix.Media\The.Act.S01E01.WEBRip.RusEng.Profix.Media.J.avi
Формат : AVI
Формат/Информация : Audio Video Interleave
Размер файла : 640 Мбайт
Продолжительность : 53 м. 7 с.
Общий поток : 1685 Кбит/сек
Программа кодирования : VirtualDubMod 1.5.10.3 (build 2550/release)
Библиотека кодирования : VirtualDubMod build 2550/release
Видео
Идентификатор : 0
Формат : MPEG-4 Visual
Профиль формата : Advanced Simple@L5
Настройки формата : BVOP1
Параметр BVOP формата : 1
Параметр QPel формата : Нет
Параметр GMC формата : Без точки перехода
Параметр матрицы формата : Default (H.263)
Идентификатор кодека : XVID
Идентификатор кодека/Подсказка : XviD
Продолжительность : 53 м. 7 с.
Битрейт : 1415 Кбит/сек
Ширина : 720 пикселей
Высота : 304 пикселя
Соотношение сторон : 2,35:1
Частота кадров : 23,976 (24000/1001) кадра/сек
Цветовое пространство : YUV
Субдискретизация насыщенности : 4:2:0
Битовая глубина : 8 бит
Тип развёртки : Прогрессивная
Метод сжатия : С потерями
Бит/(Пиксели*Кадры) : 0.270
Размер потока : 538 Мбайт (84%)
Библиотека кодирования : XviD 1.2.1 (UTC 2008-12-04)
Аудио #1
Идентификатор : 1
Формат : MPEG Audio
Версия формата : Version 1
Профиль формата : Layer 3
Настройки формата : Joint stereo
Режим : Joint stereo
Идентификатор кодека : 55
Идентификатор кодека/Подсказка : MP3
Продолжительность : 53 м. 7 с.
Вид битрейта : Постоянный
Битрейт : 128 Кбит/сек
Каналы : 2 канала
Частота : 48,0 КГц
Метод сжатия : С потерями
Размер потока : 48,6 Мбайт (8%)
Выравнивание : Соединение по промежуткам
Продолжительность промежутка : 42 мс. (1,00 видеокадр)
Время предзагрузки промежутка : 504 мс.
Аудио #2
Идентификатор : 2
Формат : MPEG Audio
Версия формата : Version 1
Профиль формата : Layer 3
Настройки формата : Joint stereo / MS Stereo
Режим : Joint stereo
Расширение режима : MS Stereo
Идентификатор кодека : 55
Идентификатор кодека/Подсказка : MP3
Продолжительность : 53 м. 7 с.
Вид битрейта : Постоянный
Битрейт : 128 Кбит/сек
Каналы : 2 канала
Частота : 48,0 КГц
Метод сжатия : С потерями
Размер потока : 48,6 Мбайт (8%)
Выравнивание : Соединение по промежуткам
Продолжительность промежутка : 42 мс. (1,00 видеокадр)
Время предзагрузки промежутка : 504 мс.

Скриншоты

Скачать

Скачать торрент! Притворство / Акт / The Act / Сезон: 1 / Серии: 1-8 из 8 (Лор де Клермон-Тоннер, Кристина Чоу, Стивен Пит) [2019, США, Криминал, драма WEBRip] MVO (Profix Media) + Original

Как скачивать? · Что такое торрент? · Рейтинг и ограничения

Сайт не распространяет и не хранит электронные версии произведений, а лишь предоставляет доступ к создаваемому пользователями каталогу ссылок на торрент-файлы, которые содержат только списки хеш-сумм


_________________
ПУСТЬ ВАС НЕ СМУЩАЕТ ОТСУТСТВИЕ СИДОВ НА МОИХ РАЗДАЧАХ, РАЗДАЧИ МУЛЬТИТРЕКЕРНЫЕ СИДЫ (Раздающие) по DHT ЕСТЬ ВСЕГДА !!!!
[Профиль] [ЛС]
Показать сообщения:    
Ответить на тему

Текущее время: Сегодня 22:36

Часовой пояс: GMT + 4



Вы не можете начинать темы
Вы не можете отвечать на сообщения
Вы не можете редактировать свои сообщения
Вы не можете удалять свои сообщения
Вы не можете голосовать в опросах
Вы не можете прикреплять файлы к сообщениям
Вы не можете скачивать файлы