Волшебники / The Magicians / Сезон: 4 / Серии: 1-13 из 13 (Скотт Смит) [2019, США, фэнтези, драма, WEBRip 720, WEB-DL 720] MVO (Baibako, ViruseProject) + Original + Sub (Eng)

Ответить на тему
 
Автор Сообщение

Magnat ®

Пол:

Стаж: 5 лет 11 месяцев

Сообщений: 457

Откуда: Москва

Пост Пост: #1 от 09-Май-2019 18:05

[Цитировать]

Волшебники / The Magicians
«Fantasy Gets Real»
- Производство: США
Год выпуска: 2019
Жанр: фэнтези, драма
Продолжительность: ~ 00:58:00 серия-Премьера (мир): 16 декабря 2015-Перевод: Любительский (многоголосый закадровый) |Baibako|
Перевод: Любительский (многоголосый закадровый) |ViruseProject|
Оригинальная аудиодорожка: Английская-Режиссер: Крис Фишер, Джошуа Батлер, Джеймс Л. Конуэй
Актеры: Эсме Бьянко, Стелла Маив, Джейсон Ральф, Майкл Кэссиди, Саммер Бишил, Дэвид Колл, Рик Уорси, Темби Лок, Арджун Гупта, Хейл Эйплмен-Описание фильма:
В один прекрасный момент несколько молодых людей удивительным образом оказываются в университете магии Брэйкбиллз, находящемся в Нью-Йорке. Парни делают необычное открытие, вносящее кардинальные перемены в их жизнь: как оказалось, умопомрачительный мир, о котором они так часто читали в детские годы, действительно есть. Не говоря уже о том, что, у всех у них есть собственные волшебные возможности. Но скоро обнаруживается, что жители данной скрытой от постороннего взгляда местности представляют собой гигантскую опасность для всего населения Земли.-
-Качество видео: WEBRip 720p (1-10) |Baibako|
Качество видео: WEB-DL 720p (11-13) |ViruseProject|
Формат: MKV
Видео: AVC, 1280 x 720 (1.778), 23.976 fps, ~3286 kbps
Аудио Rus: AC-3, 48 kHz, 6 ch, 384 kbps |Baibako|
Аудио Eng: AC-3, 48 kHz, 6 ch, 384 kbps |Original|
Субтитры: Rus, Eng
Реклама: Отсутствует

Тех. данные 11 серии

Качество видео: WEB-DL 720p (11-13) |ViruseProject|
Формат: MKV
Видео: AVC, 1280 x 720 (1.778), 23.976 fps, ~2396 kbps
Аудио Rus: AC-3, 48 kHz, 2 ch, 192 kbps |ViruseProject|
Аудио Eng: E-AC-3, 48 kHz, 6 ch, 640 kbps |Original|
Субтитры: Rus, Eng

MediaInfo:

Общее
Уникальный идентификатор : 203851768382605972348275608110068914376 (0x995C6C289865ED8782677AC42A4FD8C8)
Полное имя : E:\uTorDown\uTorrent\The.Magicians.S04.720p.ViruseProject\The.Magicians.S04E11.720p.WEB-DL.ViruseProject.mkv
Формат : Matroska
Версия формата : Version 4
Размер файла : 1017 Мбайт
Продолжительность : 44 м. 1 с.
Общий поток : 3231 Кбит/сек
Дата кодирования : UTC 2019-04-07 13:23:51
Программа кодирования : mkvmerge v8.3.0 ('Over the Horizon') 64bit
Библиотека кодирования : libebml v1.3.1 + libmatroska v1.4.2
Видео
Идентификатор : 1
Формат : AVC
Формат/Информация : Advanced Video Codec
Профиль формата : High@L3.1
Настройки формата : CABAC / 4 Ref Frames
Параметр CABAC формата : Да
Параметр RefFrames формата : 4 кадра
Идентификатор кодека : V_MPEG4/ISO/AVC
Продолжительность : 44 м. 1 с.
Вид битрейта : Постоянный
Битрейт : 2396 Кбит/сек
Номинальный битрейт : 6000 Кбит/сек
Ширина : 1280 пикселей
Высота : 720 пикселей
Соотношение сторон : 16:9
Режим частоты кадров : Постоянный
Частота кадров : 23,976 (24000/1001) кадра/сек
Цветовое пространство : YUV
Субдискретизация насыщенности : 4:2:0
Битовая глубина : 8 бит
Тип развёртки : Прогрессивная
Бит/(Пиксели*Кадры) : 0.108
Размер потока : 754 Мбайт (74%)
Default : Да
Forced : Нет
Цветовой диапазон : Limited
Основные цвета : BT.709
Характеристики трансфера : BT.709
Коэффициенты матрицы : BT.709
Аудио #1
Идентификатор : 2
Формат : AC-3
Формат/Информация : Audio Coding 3
Коммерческое название : Dolby Digital
Идентификатор кодека : A_AC3
Продолжительность : 44 м. 1 с.
Вид битрейта : Постоянный
Битрейт : 192 Кбит/сек
Каналы : 2 канала
Channel layout : L R
Частота : 48,0 КГц
Частота кадров : 31,250 кадров/сек (1536 SPF)
Битовая глубина : 16 бит
Метод сжатия : С потерями
Размер потока : 60,5 Мбайт (6%)
Заголовок : ViruseProject
Язык : Russian
ServiceKind/String : Complete Main
Default : Да
Forced : Нет
Аудио #2
Идентификатор : 3
Формат : E-AC-3
Формат/Информация : Enhanced AC-3
Коммерческое название : Dolby Digital Plus
Идентификатор кодека : A_EAC3
Продолжительность : 44 м. 1 с.
Вид битрейта : Постоянный
Битрейт : 640 Кбит/сек
Каналы : 6 каналов
Channel layout : L R C LFE Ls Rs
Частота : 48,0 КГц
Частота кадров : 31,250 кадров/сек (1536 SPF)
Метод сжатия : С потерями
Размер потока : 202 Мбайт (20%)
Язык : English
ServiceKind/String : Complete Main
Default : Нет
Forced : Нет
Текст #1
Идентификатор : 4
Формат : UTF-8
Идентификатор кодека : S_TEXT/UTF8
Идентификатор кодека/Информация : UTF-8 Plain Text
Продолжительность : 43 м. 50 с.
Битрейт : 130 бит/сек
ElementCount : 724
Размер потока : 41,9 Кбайт (0%)
Заголовок : ViruseProject
Язык : Russian
Default : Нет
Forced : Нет
Текст #2
Идентификатор : 5
Формат : UTF-8
Идентификатор кодека : S_TEXT/UTF8
Идентификатор кодека/Информация : UTF-8 Plain Text
Продолжительность : 43 м. 15 с.
Битрейт : 76 бит/сек
ElementCount : 789
Размер потока : 24,2 Кбайт (0%)
Язык : English
Default : Нет
Forced : Нет
Текст #3
Идентификатор : 6
Формат : UTF-8
Идентификатор кодека : S_TEXT/UTF8
Идентификатор кодека/Информация : UTF-8 Plain Text
Продолжительность : 43 м. 44 с.
Битрейт : 81 бит/сек
ElementCount : 886
Размер потока : 26,1 Кбайт (0%)
Заголовок : SDH
Язык : English
Default : Нет
Forced : Нет

MediaInfo:

Общее
Уникальный идентификатор : 173856061235191504879325746139496837900 (0x82CB759D81A665F3BE56EE12B605F30C)
Полное имя : E:\_Сериалы\_Сериалы\Волшебники\The.Magicians.s04.720p.WEBRip.BaibaKo\The.Magicians.s04e01.720p.WEBRip.BaibaKo.mkv
Формат : Matroska
Версия формата : Version 4 / Version 2
Размер файла : 1,28 Гбайт
Продолжительность : 45 м. 14 с.
Общий поток : 4056 Кбит/сек
Дата кодирования : UTC 2019-02-07 16:22:05
Программа кодирования : mkvmerge v30.1.0 ('Forever And More') 64-bit
Библиотека кодирования : libebml v1.3.6 + libmatroska v1.4.9
Видео
Идентификатор : 1
Формат : AVC
Формат/Информация : Advanced Video Codec
Профиль формата : High@L3.1
Настройки формата : CABAC / 4 Ref Frames
Параметр CABAC формата : Да
Параметр RefFrames формата : 4 кадра
Идентификатор кодека : V_MPEG4/ISO/AVC
Продолжительность : 45 м. 14 с.
Вид битрейта : Постоянный
Битрейт : 3286 Кбит/сек
Номинальный битрейт : 6000 Кбит/сек
Ширина : 1280 пикселей
Высота : 720 пикселей
Соотношение сторон : 16:9
Режим частоты кадров : Постоянный
Частота кадров : 23,976 (24000/1001) кадра/сек
Цветовое пространство : YUV
Субдискретизация насыщенности : 4:2:0
Битовая глубина : 8 бит
Тип развёртки : Прогрессивная
Бит/(Пиксели*Кадры) : 0.149
Размер потока : 1,04 Гбайт (81%)
Default : Да
Forced : Нет
Цветовой диапазон : Limited
Основные цвета : BT.709
Характеристики трансфера : BT.709
Коэффициенты матрицы : BT.709
Аудио #1
Идентификатор : 2
Формат : AC-3
Формат/Информация : Audio Coding 3
Идентификатор кодека : A_AC3
Продолжительность : 45 м. 14 с.
Вид битрейта : Постоянный
Битрейт : 384 Кбит/сек
Каналы : 6 каналов
Расположение каналов : Front: L C R, Side: L R, LFE
Частота : 48,0 КГц
Частота кадров : 31,250 кадров/сек (1536 SPF)
Битовая глубина : 16 бит
Метод сжатия : С потерями
Размер потока : 124 Мбайт (9%)
Язык : Russian
ServiceKind/String : Complete Main
Default : Да
Forced : Нет
Аудио #2
Идентификатор : 3
Формат : AC-3
Формат/Информация : Audio Coding 3
Идентификатор кодека : A_AC3
Продолжительность : 45 м. 14 с.
Вид битрейта : Постоянный
Битрейт : 384 Кбит/сек
Каналы : 6 каналов
Расположение каналов : Front: L C R, Side: L R, LFE
Частота : 48,0 КГц
Частота кадров : 31,250 кадров/сек (1536 SPF)
Битовая глубина : 16 бит
Метод сжатия : С потерями
Размер потока : 124 Мбайт (9%)
Язык : English
ServiceKind/String : Complete Main
Default : Нет
Forced : Нет
Текст #1
Идентификатор : 4
Формат : UTF-8
Идентификатор кодека : S_TEXT/UTF8
Идентификатор кодека/Информация : UTF-8 Plain Text
Продолжительность : 44 м. 34 с.
Битрейт : 107 бит/сек
ElementCount : 652
Размер потока : 35,1 Кбайт (0%)
Язык : Russian
Default : Нет
Forced : Нет
Текст #2
Идентификатор : 5
Формат : UTF-8
Идентификатор кодека : S_TEXT/UTF8
Идентификатор кодека/Информация : UTF-8 Plain Text
Продолжительность : 44 м. 47 с.
Битрейт : 75 бит/сек
ElementCount : 1010
Размер потока : 24,6 Кбайт (0%)
Заголовок : SDH
Язык : English
Default : Нет
Forced : Нет
-

Скриншоты:

Скачать

Скачать торрент! Волшебники / The Magicians / Сезон: 4 / Серии: 1-13 из 13 (Скотт Смит) [2019, США, фэнтези, драма, WEBRip 720, WEB-DL 720] MVO (Baibako, ViruseProject) + Original + Sub (Eng)

Как скачивать? · Что такое торрент? · Рейтинг и ограничения

Сайт не распространяет и не хранит электронные версии произведений, а лишь предоставляет доступ к создаваемому пользователями каталогу ссылок на торрент-файлы, которые содержат только списки хеш-сумм


_________________
ПУСТЬ ВАС НЕ СМУЩАЕТ ОТСУТСТВИЕ СИДОВ НА МОИХ РАЗДАЧАХ, РАЗДАЧИ МУЛЬТИТРЕКЕРНЫЕ СИДЫ (Раздающие) по DHT ЕСТЬ ВСЕГДА !!!!
[Профиль] [ЛС]
Показать сообщения:    
Ответить на тему

Текущее время: Сегодня 13:59

Часовой пояс: GMT + 4



Вы не можете начинать темы
Вы не можете отвечать на сообщения
Вы не можете редактировать свои сообщения
Вы не можете удалять свои сообщения
Вы не можете голосовать в опросах
Вы не можете прикреплять файлы к сообщениям
Вы не можете скачивать файлы