Ограбление по Фрейду / Ruben Brandt, Collector (2018) BDRip [H.264/1080p] [PR]

Ответить на тему
 
Автор Сообщение

Magnat ®

Пол:

Стаж: 4 года 3 месяца

Сообщений: 420

Откуда: xxxtorrents.pro

Пост Пост: #1 от 09-Май-2019 13:32

[Цитировать]

Ограбление по Фрейду / Ruben Brandt, Collector- Производство: Венгрия, Ruben Brandt
Жанр: мультфильм, боевик, триллер, драма, криминал
Режиссер: Милорад Крстич-Психоаналитик экстра-класса и рафинированный эстет Рубен Брандт эффективно врачует закоренелых преступников, но сам страдает от ночных кошмаров. Ему кажется, что единственный способ излечиться — выкрасть тринадцать художественных шедевров из самых охраняемых музеев мира. Собрав команду из четырех своих пациентов, он грабит Лувр, галерею Тейт, Эрмитаж и Нью-Йоркский музей современного искусства, превращаясь в самого известного и преследуемого преступника. За ним гоняются итальянские мафиози, русские гангстеры, полиция, а также охотники за головами, заинтересованные в 100 млн вознаграждения. Но самый грозный противник Брандта — Майк Ковальский, частный детектив, работающий на страховые компании…
Возраст: 16+ (зрителям, достигшим 16 лет)
Рейтинг MPAA: R (лицам до 17 лет обязательно присутствие взрослого)
Дата мировой премьеры: 22 июня 2018
Дата российской премьеры: 18 апреля 2019
Продолжительность: 01:33:40
Качество видео: BDRip
Перевод: Авторский (одноголосый, закадровый) - А.Важенин (BadBajo)
Озвучка / Автор перевода: BadBajo
Субтитры: Английские (отключаемые)
Видео: AVC/H.264, 1920x808, ~14000 Kbps
Аудио №1: DTS, 6 ch, 1 509 Kbps l Русский (BadBajo)
Аудио №2: AC3, 6 ch, 640 Kbps l Русский (BadBajo)
Аудио №3: DTS, 6 ch, 1 509 Kbps l Английский

Mediainfo:

General
Unique ID : 216300009964325921581591895348361427909 (0xA2B9DDDA8E6D1B0668F5F9C307DDFBC5)
Complete name : \Ruben Brandt Collector.2019.1080p.Bluray.x264_rus_BadBajo.mkv
Format : Matroska
Format version : Version 4
File size : 11.5 GiB
Duration : 1 h 33 min
Overall bit rate : 17.5 Mb/s
Movie name : Ruben Brandt Collector.2019.1080p.Bluray.x264_rus_BadBajo
Encoded date : UTC 2019-04-10 17:11:15
Writing application : mkvmerge v20.0.0 ('I Am The Sun') 64-bit
Writing library : libebml v1.3.5 + libmatroska v1.4.8
Cover : Yes
Attachments : cover.jpg
Video
ID : 1
Format : AVC
Format/Info : Advanced Video Codec
Format profile : [url=mailto:High@L4.1]High@L4.1[/url]
Format settings : CABAC / 4 Ref Frames
Format settings, CABAC : Yes
Format settings, ReFrames : 4 frames
Codec ID : V_MPEG4/ISO/AVC
Duration : 1 h 33 min
Bit rate : 14.0 Mb/s
Width : 1 920 pixels
Height : 808 pixels
Display aspect ratio : 2.40:1
Frame rate mode : Constant
Frame rate : 24.000 FPS
Color space : YUV
Chroma subsampling : 4:2:0
Bit depth : 8 bits
Scan type : Progressive
Bits/(Pixel*Frame) : 0.376
Stream size : 9.07 GiB (79%)
Title : Ruben Brandt Collector.2019
Writing library : x264 core 157 r2935 545de2f
Encoding settings : cabac=1 / ref=1 / deblock=1:0:0 / analyse=0x3:0x113 / me=hex / subme=2 / psy=1 / psy_rd=1.00:0.00 / mixed_ref=0 / me_range=16 / chroma_me=1 / trellis=0 / 8x8dct=1 / cqm=0 / deadzone=21,11 / fast_pskip=1 / chroma_qp_offset=0 / threads=18 / lookahead_threads=6 / sliced_threads=0 / nr=0 / decimate=1 / interlaced=0 / bluray_compat=0 / constrained_intra=0 / bframes=3 / b_pyramid=2 / b_adapt=1 / b_bias=0 / direct=1 / weightb=1 / open_gop=0 / weightp=1 / keyint=240 / keyint_min=24 / scenecut=40 / intra_refresh=0 / rc_lookahead=10 / rc=abr / mbtree=1 / bitrate=14000 / ratetol=1.0 / qcomp=0.60 / qpmin=0 / qpmax=69 / qpstep=4 / vbv_maxrate=62500 / vbv_bufsize=78125 / nal_hrd=none / filler=0 / ip_ratio=1.40 / aq=1:1.00
Default : Yes
Forced : No
Color range : Limited
Color primaries : BT.709
Transfer characteristics : BT.709
Matrix coefficients : BT.709
Audio #1
ID : 2
Format : DTS
Format/Info : Digital Theater Systems
Codec ID : A_DTS
Duration : 1 h 33 min
Bit rate mode : Constant
Bit rate : 1 510 kb/s
Channel(s) : 6 channels
Channel layout : C L R Ls Rs LFE
Sampling rate : 48.0 kHz
Frame rate : 93.750 FPS (512 SPF)
Bit depth : 24 bits
Compression mode : Lossy
Stream size : 1 011 MiB (9%)
Title : Ruben Brandt Collector.2019.DTS_rus_BadBajo
Language : Russian
Default : Yes
Forced : Yes
Audio #2
ID : 3
Format : AC-3
Format/Info : Audio Coding 3
Commercial name : Dolby Digital
Codec ID : A_AC3
Duration : 1 h 33 min
Bit rate mode : Constant
Bit rate : 640 kb/s
Channel(s) : 6 channels
Channel layout : L R C LFE Ls Rs
Sampling rate : 48.0 kHz
Frame rate : 31.250 FPS (1536 SPF)
Bit depth : 16 bits
Compression mode : Lossy
Stream size : 429 MiB (4%)
Title : Ruben Brandt Collector.2019.AC3_rus_BadBajo
Language : Russian
Service kind : Complete Main
Default : No
Forced : No
Audio #3
ID : 4
Format : DTS
Format/Info : Digital Theater Systems
Codec ID : A_DTS
Duration : 1 h 33 min
Bit rate mode : Constant
Bit rate : 1 509 kb/s
Channel(s) : 6 channels
Channel layout : C L R Ls Rs LFE
Sampling rate : 48.0 kHz
Frame rate : 93.750 FPS (512 SPF)
Bit depth : 24 bits
Compression mode : Lossy
Stream size : 1 011 MiB (9%)
Title : Ruben Brandt Collector.2019.DTS_eng
Language : English
Default : No
Forced : No
Text
ID : 5
Format : UTF-8
Codec ID : S_TEXT/UTF8
Codec ID/Info : UTF-8 Plain Text
Duration : 1 h 22 min
Bit rate : 36 b/s
Count of elements : 583
Stream size : 22.0 KiB (0%)
Title : Ruben Brandt Collector.2019_eng
Language : English
Default : No
Forced : No
Menu
00:00:00.000 : :Chapter 1
00:03:12.875 : :Chapter 2
00:07:35.000 : :Chapter 3
00:10:19.583 : :Chapter 4
00:13:56.042 : :Chapter 5
00:17:14.542 : :Chapter 6
00:21:02.458 : :Chapter 7
00:24:52.417 : :Chapter 8
00:29:09.292 : :Chapter 9
00:33:33.083 : :Chapter 10
00:37:21.500 : :Chapter 11
00:39:17.375 : :Chapter 12
00:42:15.375 : :Chapter 13
00:44:37.958 : :Chapter 14
00:51:26.917 : :Chapter 15
00:54:56.708 : :Chapter 16
00:59:01.875 : :Chapter 17
01:03:23.583 : :Chapter 18
01:09:45.292 : :Chapter 19
01:12:41.167 : :Chapter 20
01:17:48.167 : :Chapter 21
01:21:05.792 : :Chapter 22
01:25:47.792 : :Chapter 23
01:30:21.917 : :Chapter 24
Скриншоты:

Дополнительные скриншоты:

Скачать

Скачать торрент!

Как скачивать? · Что такое торрент? · Рейтинг и ограничения

Сайт не распространяет и не хранит электронные версии произведений, а лишь предоставляет доступ к создаваемому пользователями каталогу ссылок на торрент-файлы, которые содержат только списки хеш-сумм

загрузка...

_________________
ПУСТЬ ВАС НЕ СМУЩАЕТ ОТСУТСТВИЕ СИДОВ НА МОИХ РАЗДАЧАХ, РАЗДАЧИ МУЛЬТИТРЕКЕРНЫЕ СИДЫ (Раздающие) по DHT ЕСТЬ ВСЕГДА !!!!
[Профиль] [ЛС]
Показать сообщения:    
Ответить на тему

Текущее время: Сегодня 01:00

Часовой пояс: GMT + 4



Вы не можете начинать темы
Вы не можете отвечать на сообщения
Вы не можете редактировать свои сообщения
Вы не можете удалять свои сообщения
Вы не можете голосовать в опросах
Вы не можете прикреплять файлы к сообщениям
Вы не можете скачивать файлы