Лига справедливости против Смертоносной пятерки / Justice League vs. the Fatal Five (Сэм Лью / Sam Liu) [2019, мультфильм, фантастика, фэнтези, UHD BDRemux 2160p] MVO + Original Eng + eng sub

Ответить на тему
 
Автор Сообщение

Magnat ®

Пол:

Стаж: 6 лет 1 месяц

Сообщений: 457

Откуда: Москва

Пост Пост: #1 от 09-Май-2019 13:31

[Цитировать]

Лига справедливости против Смертоносной пятерки / Justice League vs. the Fatal Five
-Страна: США.
Жанр: Мультфильм, фантастика, фэнтези.
Продолжительность: 01:17:30
Год выпуска: 2019.
Перевод: Любительский (многоголосый закадровый) Flarrow Films.
Русские субтитры: Есть.
Режиссёр: Сэм Лью / Sam Liu.
Роли озвучивали: Элиес Габел, Дайан Герреро, Кевин Конрой, Сьюзэн Эйзенберг, Джордж Ньюберн, Даниэла Бобадилла, Кевин Майкл Ричардсон, Ноэль Фишер, Питер Джессоп, Том Кенни.--Описание: Судьба Земли висит на волоске и Лиге придется столкнуться с новой командой суперзлодеев, путешествующих во времени, которая прибывает в Метрополис в поисках Джессики Круз, начинающего Зеленого Фонаря. С ее помощью Мано, Убеждатель и Тарок собираются освободить еще двоих членов команды, Изумрудную Императрицу и Валидуса.-Качество: UHD BDRemux 2160p
Формат: MKV
Видео кодек: HEVC
Аудио кодек: DTS MA
Видео: MPEG-H HEVC Video / 3840x2160 / 57.0 Mb/s / 23.976 fps / 16:9 / Main 10 Profile 5.1 High / 4:2:0 / 10 bits / HDR / BT.2020 /
Аудио 1: DTS-HD Master Audio / 5.1 / 48 kHz / 2 250 kbps / 16-bit (DTS Core: 5.1 / 48 kHz / 1509 kbps / 16-bit)............ Flarrow Films
Аудио 2: DTS-HD Master Audio / 5.1 / 48 kHz / 2 271 kbps / 24-bit (DTS Core: 5.1 / 48 kHz / 1509 kbps / 24-bit)............ English
Субтитры: Русские (Перевод группы UGN SUBZ Translators), English, English SDH.
Навигация по главам: 8 глав (не именных)

MInfo

General
Unique ID : 253905591588455561295372635400544712291 (0xBF04702D23698AD2DEC144C0B00FF663)
Complete name : D:\Torrents\Justice League vs. the Fatal Five (2019) UHD BDRemux 2160p Bobropandavar.mkv
Format : Matroska
Format version : Version 4
File size : 33.3 GiB
Duration : 1 h 17 min
Overall bit rate mode : Variable
Overall bit rate : 61.5 Mb/s
Movie name : Justice League vs. the Fatal Five (2019) UHD BDRemux 2160p Bobropandavar
Encoded date : UTC 2019-04-11 12:04:47
Writing application : mkvmerge v32.0.0 ('Astral Progressions') 64-bit
Writing library : libebml v1.3.7 + libmatroska v1.5.0
Cover : Yes
Attachments : cover.jpg
Video
ID : 1
Format : HEVC
Format/Info : High Efficiency Video Coding
Commercial name : HDR10
Format profile : Main 10@L5.1@High
Codec ID : V_MPEGH/ISO/HEVC
Duration : 1 h 17 min
Bit rate : 57.0 Mb/s
Width : 3 840 pixels
Height : 2 160 pixels
Display aspect ratio : 16:9
Frame rate mode : Constant
Frame rate : 23.976 (24000/1001) FPS
Color space : YUV
Chroma subsampling : 4:2:0 (Type 2)
Bit depth : 10 bits
Bits/(Pixel*Frame) : 0.287
Stream size : 30.9 GiB (93%)
Writing library : ATEME Titan File 3.9.0 (4.9.0.0)
Language : English
Default : Yes
Forced : No
Color range : Limited
Color primaries : BT.2020
Transfer characteristics : PQ
Matrix coefficients : BT.2020 non-constant
Mastering display color pri : Display P3
Mastering display luminance : min: 0.0050 cd/m2, max: 4000 cd/m2
Maximum Content Light Level : 790 cd/m2
Maximum Frame-Average Light : 294 cd/m2
Audio #1
ID : 2
Format : DTS XLL
Format/Info : Digital Theater Systems
Commercial name : DTS-HD Master Audio
Codec ID : A_DTS
Duration : 1 h 17 min
Bit rate mode : Variable
Bit rate : 2 250 kb/s
Channel(s) : 6 channels
Channel layout : C L R Ls Rs LFE
Sampling rate : 48.0 kHz
Frame rate : 93.750 FPS (512 SPF)
Bit depth : 16 bits
Compression mode : Lossless
Stream size : 1.22 GiB (4%)
Title : Flarrow Films
Language : Russian
Default : Yes
Forced : No
Audio #2
ID : 3
Format : DTS XLL
Format/Info : Digital Theater Systems
Commercial name : DTS-HD Master Audio
Codec ID : A_DTS
Duration : 1 h 17 min
Bit rate mode : Variable
Bit rate : 2 271 kb/s
Channel(s) : 6 channels
Channel layout : C L R Ls Rs LFE
Sampling rate : 48.0 kHz
Frame rate : 93.750 FPS (512 SPF)
Bit depth : 24 bits
Compression mode : Lossless
Stream size : 1.23 GiB (4%)
Title : Original
Language : English
Default : No
Forced : No
Text #1
ID : 4
Format : UTF-8
Codec ID : S_TEXT/UTF8
Codec ID/Info : UTF-8 Plain Text
Duration : 1 h 13 min
Bit rate : 72 b/s
Count of elements : 766
Stream size : 39.1 KiB (0%)
Title : UGN SUBZ Translators
Language : Russian
Default : No
Forced : No
Text #2
ID : 5
Format : UTF-8
Codec ID : S_TEXT/UTF8
Codec ID/Info : UTF-8 Plain Text
Duration : 1 h 16 min
Bit rate : 37 b/s
Count of elements : 672
Stream size : 21.2 KiB (0%)
Title : English
Language : English
Default : No
Forced : No
Text #3
ID : 6
Format : UTF-8
Codec ID : S_TEXT/UTF8
Codec ID/Info : UTF-8 Plain Text
Duration : 1 h 16 min
Bit rate : 42 b/s
Count of elements : 886
Stream size : 23.6 KiB (0%)
Title : English-SDH
Language : English
Default : No
Forced : No
Menu
00:00:00.000 : :Chapter 1
00:10:46.395 : :Chapter 2
00:21:41.091 : :Chapter 3
00:31:03.862 : :Chapter 4
00:42:55.322 : :Chapter 5
00:54:12.791 : :Chapter 6
01:03:17.835 : :Chapter 7
01:14:21.457 : :Chapter 8

Скриншоты


Скачать

Скачать торрент! Лига справедливости против Смертоносной пятерки / Justice League vs. the Fatal Five (Сэм Лью / Sam Liu) [2019, мультфильм, фантастика, фэнтези, UHD BDRemux 2160p] MVO + Original Eng + eng sub

Как скачивать? · Что такое торрент? · Рейтинг и ограничения

Сайт не распространяет и не хранит электронные версии произведений, а лишь предоставляет доступ к создаваемому пользователями каталогу ссылок на торрент-файлы, которые содержат только списки хеш-сумм


_________________
ПУСТЬ ВАС НЕ СМУЩАЕТ ОТСУТСТВИЕ СИДОВ НА МОИХ РАЗДАЧАХ, РАЗДАЧИ МУЛЬТИТРЕКЕРНЫЕ СИДЫ (Раздающие) по DHT ЕСТЬ ВСЕГДА !!!!
[Профиль] [ЛС]
Показать сообщения:    
Ответить на тему

Текущее время: Сегодня 08:45

Часовой пояс: GMT + 4



Вы не можете начинать темы
Вы не можете отвечать на сообщения
Вы не можете редактировать свои сообщения
Вы не можете удалять свои сообщения
Вы не можете голосовать в опросах
Вы не можете прикреплять файлы к сообщениям
Вы не можете скачивать файлы