Несокрушимый (2018) BDRemux [H.264/1080p] [GER Transfer]

Ответить на тему
 
Автор Сообщение

Magnat ®

Пол:

Стаж: 4 года 3 месяца

Сообщений: 420

Откуда: xxxtorrents.pro

Пост Пост: #1 от 09-Май-2019 12:53

[Цитировать]

Несокрушимый- Производство: Россия, Ода Фильм Продакшн, Пиманов и партнёры, Мосфильм
Жанр: Военный, История, Драма
Режиссер: Константин Максимов
Продюсер: Ольга Погодина, Алексей Пиманов, Денис Анисимов
Актеры: Андрей Чернышов, Владимир Епифанцев, Олег Фомин, Сергей Горобченко, Ольга Погодина, Николай Добрынин, Василий Седых, Владимир Кочетков, Дмитрий Золотухин, Олег Чудницов ...-В основе фильма реальная история уникального подвига экипажа танка «КВ-1». Приняв неравный бой, экипаж Семена Коновалова уничтожил 16 танков, 2 бронемашины и 8 автомашин с живой силой противника в районе хутора Нижнемитякин Тарасовского района Ростовской области.
Это история не плакатных героев, а разбитных, веселых, очень разных парней, которые просто хотели жить, но в решающую минуту сумели принять единственно верное решение и совершить подвиг достойный легенды.
Возраст: 12+ (зрителям, достигшим 12 лет)
Дата мировой премьеры: 22 января 2019, ...
Дата российской премьеры: 25 октября 2018, «Двадцатый Век Фокс СНГ»
Продолжительность: 01:29:36
Качество видео: BDRemux
Перевод: Не требуется (Русский) - Лицензия (BD GER)
Субтитры: Русские (Full)
Видео: AVC/H.264, 1920x1080, 34.7 Mbps, 24,000 fps
Аудио #1: DTS-HD MA, 5.1, 4 183 kbps - Русский
Аудио #2: AC-3, 5.1, 640 kbps - Русский

Mediainfo:

General
Unique ID : 156575209397676182491417243856111885355 (0x75CB49D6BADC5C29676CF5B712CF5C2B)
Complete name : Nesokrushimyy.2018.BDRemux.1080p.mkv
Format : Matroska
Format version : Version 4
File size : 24.8 GiB
Duration : 1 h 29 min
Overall bit rate mode : Variable
Overall bit rate : 39.6 Mb/s
Encoded date : UTC 2019-04-07 21:55:04
Writing application : mkvmerge v32.0.0 ('Astral Progressions') 64-bit
Writing library : libebml v1.3.7 + libmatroska v1.5.0
Video
ID : 1
Format : AVC
Format/Info : Advanced Video Codec
Format profile : [url=mailto:High@L4.1]High@L4.1[/url]
Format settings : CABAC / 4 Ref Frames
Format settings, CABAC : Yes
Format settings, ReFrames : 4 frames
Codec ID : V_MPEG4/ISO/AVC
Duration : 1 h 29 min
Bit rate mode : Variable
Bit rate : 34.7 Mb/s
Maximum bit rate : 36.0 Mb/s
Width : 1 920 pixels
Height : 1 080 pixels
Display aspect ratio : 16:9
Frame rate mode : Constant
Frame rate : 24.000 FPS
Color space : YUV
Chroma subsampling : 4:2:0
Bit depth : 8 bits
Scan type : Progressive
Bits/(Pixel*Frame) : 0.698
Stream size : 21.7 GiB (88%)
Language : Russian
Default : Yes
Forced : No
Audio #1
ID : 2
Format : DTS XLL
Format/Info : Digital Theater Systems
Commercial name : DTS-HD Master Audio
Codec ID : A_DTS
Duration : 1 h 29 min
Bit rate mode : Variable
Bit rate : 4 183 kb/s
Channel(s) : 6 channels
Channel layout : C L R Ls Rs LFE
Sampling rate : 48.0 kHz
Frame rate : 93.750 FPS (512 SPF)
Bit depth : 24 bits
Compression mode : Lossless
Stream size : 2.62 GiB (11%)
Language : Russian
Default : No
Forced : No
Audio #2
ID : 3
Format : AC-3
Format/Info : Audio Coding 3
Commercial name : Dolby Digital
Codec ID : A_AC3
Duration : 1 h 29 min
Bit rate mode : Constant
Bit rate : 640 kb/s
Channel(s) : 6 channels
Channel layout : L R C LFE Ls Rs
Sampling rate : 48.0 kHz
Frame rate : 31.250 FPS (1536 SPF)
Bit depth : 16 bits
Compression mode : Lossy
Stream size : 410 MiB (2%)
Language : Russian
Service kind : Complete Main
Default : No
Forced : No
Text
ID : 4
Format : UTF-8
Codec ID : S_TEXT/UTF8
Codec ID/Info : UTF-8 Plain Text
Duration : 1 h 26 min
Bit rate : 76 b/s
Count of elements : 894
Stream size : 48.2 KiB (0%)
Title : Full
Language : Russian
Default : No
Forced : No
Menu
00:00:00.000 : :Kapitel 01
00:06:55.000 : :Kapitel 02
00:12:34.833 : :Kapitel 03
00:18:15.542 : :Kapitel 04
00:23:11.208 : :Kapitel 05
00:30:32.542 : :Kapitel 06
00:37:27.083 : :Kapitel 07
00:43:47.958 : :Kapitel 08
00:49:43.625 : :Kapitel 09
00:57:52.542 : :Kapitel 10
01:01:58.750 : :Kapitel 11
01:07:38.625 : :Kapitel 12
01:12:59.875 : :Kapitel 13
01:18:22.958 : :Kapitel 14
01:23:34.625 : :Kapitel 15
01:25:35.292 : :Kapitel 16

Примечание:

Исходный диск на blu-ray.com
https://www.blu-ray.com/movies/Unzerstorbar-Die-Panzerschlacht-von-Rostow-Blu-ray/227048/
Скриншоты:

Дополнительные скриншоты:


Скачать

Скачать торрент!

Как скачивать? · Что такое торрент? · Рейтинг и ограничения

Сайт не распространяет и не хранит электронные версии произведений, а лишь предоставляет доступ к создаваемому пользователями каталогу ссылок на торрент-файлы, которые содержат только списки хеш-сумм

загрузка...

_________________
ПУСТЬ ВАС НЕ СМУЩАЕТ ОТСУТСТВИЕ СИДОВ НА МОИХ РАЗДАЧАХ, РАЗДАЧИ МУЛЬТИТРЕКЕРНЫЕ СИДЫ (Раздающие) по DHT ЕСТЬ ВСЕГДА !!!!
[Профиль] [ЛС]
Показать сообщения:    
Ответить на тему

Текущее время: Сегодня 01:00

Часовой пояс: GMT + 4



Вы не можете начинать темы
Вы не можете отвечать на сообщения
Вы не можете редактировать свои сообщения
Вы не можете удалять свои сообщения
Вы не можете голосовать в опросах
Вы не можете прикреплять файлы к сообщениям
Вы не можете скачивать файлы