Трезвый водитель (2018) WEB-DL [H.264/1080p-LQ]

Ответить на тему
 
Автор Сообщение

Magnat ®

Пол:

Стаж: 5 лет 5 месяцев

Сообщений: 420

Откуда: xxxtorrents.pro

Пост Пост: #1 от 09-Май-2019 12:50

[Цитировать]

Трезвый водитель - Производство: Россия, Кинокомпания «Небо», Yellow, Black & White
Жанр: Комедия, Приключения
Режиссер: Резо Гигинеишвили
Продюсер: Эдуард Илоян, Резо Гигинеишвили, Виталий Шляппо
Актеры: Андрей Бурковский, Виктор Хориняк, Ирина Мартыненко, Янина Студилина-Молодой наивный провинциал Артём приезжает к другу в Москву в надежде на новую красивую жизнь, но для начала вынужден помогать ему в нелёгком ночном труде «трезвого водителя». В первый же вечер, отвозя из ночного клуба красавицу Кристину, Артём по недоразумению оказывается вместе с ней в дорогом гостиничном номере. Совершенно не помня события прошлой ночи, Кристина принимает парня за молодого миллионера, а тот, в свою очередь, не спешит ее разочаровывать. С каждым свиданием Артём влюбляется все больше, но и выкручиваться из нелепых ситуаций становится всё сложнее.
Возраст: 16+ (зрителям, достигшим 16 лет)
Дата российской премьеры: 21 марта 2019, «WDSSPR»
Продолжительность: 01:40:05
Качество видео: WEB-DL
Перевод: Не требуется (русский) iTunes
Субтитры: Отсутствуют
Видео: AVC/H.264, 1920x804 (2.40:1), 4470 kbps
Аудио: АС3, 6 ch, 48 kHz, 384 Kbps | Русский

Mediainfo:

Общее
Уникальный идентификатор : 197615261403043756705630809055005855113 (0x94AB509FEF2C6BFF800D5E883A9D4D89)
Полное имя : D:\Трезвый.водитель.2018.WEB-DL.[1080p].NNMClub.mkv
Формат : Matroska
Версия формата : Version 2
Размер файла : 3,46 Гбайт
Продолжительность : 1 ч. 40 м.
Общий поток : 4952 Кбит/сек
Название фильма : Sober.driver.2019.ELEKTRI4KA.UNIONGANG
Дата кодирования : UTC 2019-04-25 17:23:56
Программа кодирования : mkvmerge v7.8.0 ('River Man') 32bit built on Apr 3 2015 12:11:22
Библиотека кодирования : libebml v1.3.1 + libmatroska v1.4.2
Видео
Идентификатор : 2
Формат : AVC
Формат/Информация : Advanced Video Codec
Профиль формата : High@L4
Настройки формата : CABAC / 5 Ref Frames
Параметр CABAC формата : Да
Параметр RefFrames формата : 5 кадров
Идентификатор кодека : V_MPEG4/ISO/AVC
Продолжительность : 1 ч. 40 м.
Битрейт : 4470 Кбит/сек
Ширина : 1920 пикселей
Высота : 804 пикселя
Соотношение сторон : 2,40:1
Режим частоты кадров : Постоянный
Частота кадров : 24,000 кадра/сек
Цветовое пространство : YUV
Субдискретизация насыщенности : 4:2:0
Битовая глубина : 8 бит
Тип развёртки : Прогрессивная
Бит/(Пиксели*Кадры) : 0.121
Размер потока : 3,12 Гбайт (90%)
Язык : English
Default : Да
Forced : Нет
Цветовой диапазон : Limited
Основные цвета : BT.709
Характеристики трансфера : BT.709
Коэффициенты матрицы : BT.709
Аудио
Идентификатор : 1
Формат : AC-3
Формат/Информация : Audio Coding 3
Коммерческое название : Dolby Digital
Идентификатор кодека : A_AC3
Продолжительность : 1 ч. 40 м.
Вид битрейта : Постоянный
Битрейт : 384 Кбит/сек
Каналы : 6 каналов
ChannelLayout : L R C LFE Ls Rs
Частота : 48,0 КГц
Частота кадров : 31,250 кадров/сек (1536 SPF)
Битовая глубина : 16 бит
Метод сжатия : С потерями
Размер потока : 275 Мбайт (8%)
Заголовок : itunes.ELEKTRI4KA.UNIONGANG
Язык : Russian
ServiceKind/String : Complete Main
Default : Да
Forced : Нет
Меню
00:00:00.000 : en:Глава 1
00:04:50.208 : en:Глава 2
00:12:47.833 : en:Глава 3
00:22:35.249 : en:Глава 4
00:29:57.957 : en:Глава 5
00:35:22.040 : en:Глава 6
00:43:10.498 : en:Глава 7
00:49:09.873 : en:Глава 8
00:56:10.664 : en:Глава 9
01:00:34.164 : en:Глава 10
01:06:29.455 : en:Глава 11
01:12:24.912 : en:Глава 12
01:18:47.369 : en:Глава 13
01:24:58.326 : en:Глава 14
01:30:23.701 : en:Глава 15
Скриншоты:
Скачать

Скачать торрент! Трезвый водитель (2018) WEB-DL [H.264/1080p-LQ]

Как скачивать? · Что такое торрент? · Рейтинг и ограничения

Сайт не распространяет и не хранит электронные версии произведений, а лишь предоставляет доступ к создаваемому пользователями каталогу ссылок на торрент-файлы, которые содержат только списки хеш-сумм

загрузка...

_________________
ПУСТЬ ВАС НЕ СМУЩАЕТ ОТСУТСТВИЕ СИДОВ НА МОИХ РАЗДАЧАХ, РАЗДАЧИ МУЛЬТИТРЕКЕРНЫЕ СИДЫ (Раздающие) по DHT ЕСТЬ ВСЕГДА !!!!
[Профиль] [ЛС]
Показать сообщения:    
Ответить на тему

Текущее время: Сегодня 10:51

Часовой пояс: GMT + 4



Вы не можете начинать темы
Вы не можете отвечать на сообщения
Вы не можете редактировать свои сообщения
Вы не можете удалять свои сообщения
Вы не можете голосовать в опросах
Вы не можете прикреплять файлы к сообщениям
Вы не можете скачивать файлы