Гости (2018) WEB-DL 1080p | iTunes

Ответить на тему
 
Автор Сообщение

Magnat ®

Пол:

Стаж: 5 лет 5 месяцев

Сообщений: 420

Откуда: xxxtorrents.pro

Пост Пост: #1 от 09-Май-2019 12:49

[Цитировать]

Гости- Название: Гости
Год выхода: 2018
Жанр: Ужасы, триллер
Режиссер: Евгений Абызов
В ролях: Юрий Чурсин, Ангелина Стречина, Михаил Мещеряков, Анастасия Уколова, Анар Халилов, Евгений Егоров, Марина Панферова, Иван Верховых, Мария Лисовая-Юная Катя знакомится с веселой компанией приезжих ребят, у которых есть специфическое развлечение — устраивать вечеринки в чужих пустующих домах. И Катя знает подходящее место: старинная дача на побережье, хозяин которой давно уехал. Уединенно расположенный дом, в котором в начале прошлого века был спиритический салон, кажется всем отличным вариантом. В разгар вечеринки появляется тот, кого Катя никак не ожидала увидеть: таинственный хозяин дома… Человек, которого она любила. Человек, находящийся во власти потусторонних сил.
Выпущено: Россия, Enjoy Movies
Продолжительность: 01:23:56
Язык: Русский | iTunes
Файл
Качество: WEB-DL 1080p
Контейнер: MKV
Видео: MPEG-4 AVC, 1920x806, 4484 Kb/s
Аудио: Russian: AC3, 6 ch, 384 Kb/s
Субтитры: Нет

Скриншоты


MediaInfo

General
Unique ID : 185277861834917124780566920179985948503 (0x8B6337DCDF41F9B2916268F907401F57)
Complete name : Гости.2018.WEB-DL.1080p.mkv
Format : Matroska
Format version : Version 2
File size : 2.91 GiB
Duration : 1 h 23 min
Overall bit rate : 4 967 kb/s
Encoded date : UTC 2019-04-28 18:55:22
Writing application : mkvmerge v5.8.0 ('No Sleep / Pillow') built on Sep 2 2012 15:37:04
Writing library : libebml v1.2.3 + libmatroska v1.3.0
Video
ID : 1
Format : AVC
Format/Info : Advanced Video Codec
Format profile : High@L4
Format settings, CABAC : Yes
Format settings, RefFrames : 5 frames
Codec ID : V_MPEG4/ISO/AVC
Duration : 1 h 23 min
Bit rate : 4 484 kb/s
Width : 1 920 pixels
Height : 806 pixels
Display aspect ratio : 2.40:1
Frame rate mode : Constant
Frame rate : 25.000 FPS
Color space : YUV
Chroma subsampling : 4:2:0
Bit depth : 8 bits
Scan type : Progressive
Bits/(Pixel*Frame) : 0.116
Stream size : 2.63 GiB (90%)
Title : Гости.2018.WEB-DL.1080p
Language : English
Default : Yes
Forced : No
Color range : Limited
Color primaries : BT.709
Transfer characteristics : BT.709
Matrix coefficients : BT.709
Audio
ID : 2
Format : AC-3
Format/Info : Audio Coding 3
Format settings, Endianness : Big
Codec ID : A_AC3
Duration : 1 h 23 min
Bit rate mode : Constant
Bit rate : 384 kb/s
Channel(s) : 6 channels
Channel positions : Front: L C R, Side: L R, LFE
Sampling rate : 48.0 kHz
Frame rate : 31.250 FPS (1536 SPF)
Bit depth : 16 bits
Compression mode : Lossy
Stream size : 231 MiB (8%)
Title : iTunes
Language : Russian
Service kind : Complete Main
Default : Yes
Forced : No
Menu
00:00:00.000 : en:Глава 1
00:06:44.960 : en:Глава 2
00:11:11.760 : en:Глава 3
00:16:33.960 : en:Глава 4
00:21:20.880 : en:Глава 5
00:27:15.800 : en:Глава 6
00:33:29.080 : en:Глава 7
00:39:42.720 : en:Глава 8
00:46:35.440 : en:Глава 9
00:52:30.559 : en:Глава 10
00:59:13.718 : en:Глава 11
01:05:46.877 : en:Глава 12
01:13:08.357 : en:Глава 13
Скачать

Скачать торрент! Гости (2018) WEB-DL 1080p | iTunes

Как скачивать? · Что такое торрент? · Рейтинг и ограничения

Сайт не распространяет и не хранит электронные версии произведений, а лишь предоставляет доступ к создаваемому пользователями каталогу ссылок на торрент-файлы, которые содержат только списки хеш-сумм

загрузка...

_________________
ПУСТЬ ВАС НЕ СМУЩАЕТ ОТСУТСТВИЕ СИДОВ НА МОИХ РАЗДАЧАХ, РАЗДАЧИ МУЛЬТИТРЕКЕРНЫЕ СИДЫ (Раздающие) по DHT ЕСТЬ ВСЕГДА !!!!
[Профиль] [ЛС]
Показать сообщения:    
Ответить на тему

Текущее время: Сегодня 07:39

Часовой пояс: GMT + 4



Вы не можете начинать темы
Вы не можете отвечать на сообщения
Вы не можете редактировать свои сообщения
Вы не можете удалять свои сообщения
Вы не можете голосовать в опросах
Вы не можете прикреплять файлы к сообщениям
Вы не можете скачивать файлы