Омен: Перерождение / The Prodigy (2019) BDRemux [H.264/1080p]

Ответить на тему
 
Автор Сообщение

Magnat ®

Пол:

Стаж: 4 года 1 месяц

Сообщений: 420

Откуда: xxxtorrents.pro

Пост Пост: #1 от 08-Май-2019 23:50

[Цитировать]

Омен: Перерождение / The Prodigy«Кем он был в прошлых жизнях?»- Производство: США, Гонконг / Orion Pictures, Vinson Films, XYZ Films
Жанр: Ужасы, Триллер
Режиссер: Николас МакКарти
Продюсер: Тара Фарни, Трип Винсон
Актеры: Тейлор Шиллинг, Джексон Роберт Скотт, Колм Фиор, Питер Муни, Пол Фото, Бриттани Аллен, Паула Бодро, Элиза Мулчерри, Олунике Аделийи, Джанет Лэнд-История молодой матери, которая обеспокоена странным поведением своего восьмилетнего сына. Она считает, что причина такого поведения — нечто сверхъестественное.
Возраст: 16+ (зрителям, достигшим 16 лет)
Рейтинг MPAA: R (лицам до 17 лет обязательно присутствие взрослого)
Дата мировой премьеры: 6 февраля 2019
Дата российской премьеры: 21 февраля 2019, «Экспонента»
Продолжительность: 01:31:46
Качество видео: BDRemux
Перевод: Дублированный (iTunes)
Субтитры: Английские (SDH)
Видео: AVC/H.264, 1920x1080, 31.6 Mbps, 23.976 fps
Аудио 1: AC3, 6 ch, 384 Kbps - Русский
Аудио 2: DTS-HD MA, 6 ch, 3 366 Kbps - Английский

Mediainfo:

General
Unique ID : 319227762051545888076953298116959723488 (0xF02907D57FA1E3E7400ABB5E901EDFE0)
Complete name : The.Prodigy.2019.BDREMUX.1080p.seleZen.mkv
Format : Matroska
Format version : Version 4
File size : 22.7 GiB
Duration : 1 h 31 min
Overall bit rate mode : Variable
Overall bit rate : 35.4 Mb/s
Movie name : The Prodigy 2019 from селезень
Encoded date : UTC 2019-05-08 00:07:30
Writing application : mkvmerge v32.0.0 ('Astral Progressions') 64-bit
Writing library : libebml v1.3.7 + libmatroska v1.5.0
Video
ID : 1
Format : AVC
Format/Info : Advanced Video Codec
Format profile : [url=mailto:High@L4.1]High@L4.1[/url]
Format settings : CABAC / 4 Ref Frames
Format settings, CABAC : Yes
Format settings, Reference : 4 frames
Codec ID : V_MPEG4/ISO/AVC
Duration : 1 h 31 min
Bit rate mode : Variable
Bit rate : 31.6 Mb/s
Maximum bit rate : 37.5 Mb/s
Width : 1 920 pixels
Height : 1 080 pixels
Display aspect ratio : 16:9
Frame rate mode : Constant
Frame rate : 23.976 (24000/1001) FPS
Color space : YUV
Chroma subsampling : 4:2:0
Bit depth : 8 bits
Scan type : Progressive
Bits/(Pixel*Frame) : 0.636
Stream size : 20.3 GiB (89%)
Language : English
Default : Yes
Forced : No
Audio #1
ID : 2
Format : AC-3
Format/Info : Audio Coding 3
Commercial name : Dolby Digital
Codec ID : A_AC3
Duration : 1 h 31 min
Bit rate mode : Constant
Bit rate : 384 kb/s
Channel(s) : 6 channels
Channel layout : L R C LFE Ls Rs
Sampling rate : 48.0 kHz
Frame rate : 31.250 FPS (1536 SPF)
Bit depth : 16 bits
Compression mode : Lossy
Stream size : 252 MiB (1%)
Title : iTunes
Language : Russian
Service kind : Complete Main
Default : Yes
Forced : Yes
Audio #2
ID : 3
Format : DTS XLL
Format/Info : Digital Theater Systems
Commercial name : DTS-HD Master Audio
Codec ID : A_DTS
Duration : 1 h 31 min
Bit rate mode : Variable
Bit rate : 3 366 kb/s
Channel(s) : 6 channels
Channel layout : C L R Ls Rs LFE
Sampling rate : 48.0 kHz
Frame rate : 93.750 FPS (512 SPF)
Bit depth : 24 bits
Compression mode : Lossless
Stream size : 2.16 GiB (10%)
Title : Original
Language : English
Default : No
Forced : No
Text
ID : 4
Format : UTF-8
Codec ID : S_TEXT/UTF8
Codec ID/Info : UTF-8 Plain Text
Duration : 1 h 31 min
Bit rate : 43 b/s
Count of elements : 1154
Stream size : 29.3 KiB (0%)
Title : SDH
Language : English
Default : No
Forced : No
Menu
00:00:00.000 : ru:Глава 01
00:04:05.704 : ru:Глава 02
00:09:53.384 : ru:Глава 03
00:12:55.441 : ru:Глава 04
00:18:32.528 : ru:Глава 05
00:24:20.626 : ru:Глава 06
00:28:53.774 : ru:Глава 07
00:33:59.913 : ru:Глава 08
00:38:33.937 : ru:Глава 09
00:42:10.027 : ru:Глава 10
00:46:54.895 : ru:Глава 11
00:50:15.429 : ru:Глава 12
00:56:20.919 : ru:Глава 13
01:01:39.279 : ru:Глава 14
01:05:14.911 : ru:Глава 15
01:09:53.523 : ru:Глава 16
01:13:42.501 : ru:Глава 17
01:21:23.670 : ru:Глава 18
01:25:20.907 : ru:Глава 19
01:26:46.368 : ru:Глава 20

Знаете ли вы, что...

Оригинальное название фильма можно перевести как «Вундеркинд».
Скриншоты:

Доп. скриншоты:

Скачать

Скачать торрент!

Как скачивать? · Что такое торрент? · Рейтинг и ограничения

Сайт не распространяет и не хранит электронные версии произведений, а лишь предоставляет доступ к создаваемому пользователями каталогу ссылок на торрент-файлы, которые содержат только списки хеш-сумм

загрузка...

_________________
ПУСТЬ ВАС НЕ СМУЩАЕТ ОТСУТСТВИЕ СИДОВ НА МОИХ РАЗДАЧАХ, РАЗДАЧИ МУЛЬТИТРЕКЕРНЫЕ СИДЫ (Раздающие) по DHT ЕСТЬ ВСЕГДА !!!!
[Профиль] [ЛС]
Показать сообщения:    
Ответить на тему

Текущее время: Сегодня 06:11

Часовой пояс: GMT + 4



Вы не можете начинать темы
Вы не можете отвечать на сообщения
Вы не можете редактировать свои сообщения
Вы не можете удалять свои сообщения
Вы не можете голосовать в опросах
Вы не можете прикреплять файлы к сообщениям
Вы не можете скачивать файлы