Вирджиния Миннесота / Virginia Minnesota (2019) WEB-DL 1080p | HDRezka Studio

Ответить на тему
 
Автор Сообщение

Magnat ®

Пол:

Стаж: 4 года 4 месяца

Сообщений: 420

Откуда: xxxtorrents.pro

Пост Пост: #1 от 05-Май-2019 21:21

[Цитировать]

Вирджиния Миннесота / Virginia Minnesota- Оригинальное название: Virginia Minnesota
Год выпуска: 2019
Жанр: Драма, комедия
Режиссер: Дэниэл Стайн
В ролях: Аврора Перрино, Рэйчел Хендрикс, Джессика Мизел, Джулия Киф, Сьюзэн Уолтерс, Эйас Юнис, Аарон Хилл, Дэниэл Стайн, Карл Палмер, Брэдли Хаземейер-В детстве подруги Аддисон и Лайл жили в доме для девочек из неблагополучных семей, но их пути давно разошлись. После смерти хозяйки приюта становится известно, что она вписала своих воспитанниц в завещание, но узнать его содержимое можно только в присутствии всех упомянутых в нем людей. Когда Аддисон не приходит на оглашение, Лайл решает найти ее и убедить поскорее покончить с этим делом. Спустя некоторое время девушки встречаются и отправляются в дорожное путешествие, в ходе которого они испытают море незабываемых эмоций и осознают истинную ценность дружбы.
Выпущено: США, Rushaway Pictures
Продолжительность: 01:37:55
Перевод: Профессиональный (многоголосый, закадровый) | HDRezka Studio
Качество: WEB-DL 1080p
Контейнер: MKV
Видео: MPEG-4 AVC, 4533 Кбит/с, 1908х792
Аудио 1: Русский: AC3, 2 ch, 192 Кбит/с - HDRezka Studio
Аудио 2: Английский: AC3, 6 ch, 384 Кбит/с - Original
Субтитры: Английские

Скриншоты


MediaInfo

General
Unique ID : 89385971453781220416998889455990304935 (0x433F1CA5AE72321163C7B97BC32F70A7)
Complete name : G:Virginia.Minnesota.2019.WEB-DL.1080p.mkv
Format : Matroska
Format version : Version 4 / Version 2
File size : 3.50 GiB
Duration : 1 h 37 min
Overall bit rate : 5 111 kb/s
Encoded date : UTC 2019-04-28 08:10:48
Writing application : mkvmerge v20.0.0 ('I Am The Sun') 64-bit
Writing library : libebml v1.3.5 + libmatroska v1.4.8
Video
ID : 1
Format : AVC
Format/Info : Advanced Video Codec
Format profile : High@L4
Format settings : CABAC / 5 Ref Frames
Format settings, CABAC : Yes
Format settings, RefFrames : 5 frames
Codec ID : V_MPEG4/ISO/AVC
Duration : 1 h 37 min
Bit rate : 4 533 kb/s
Width : 1 908 pixels
Height : 792 pixels
Display aspect ratio : 2.40:1
Frame rate mode : Constant
Frame rate : 23.976 (24000/1001) FPS
Color space : YUV
Chroma subsampling : 4:2:0
Bit depth : 8 bits
Scan type : Progressive
Bits/(Pixel*Frame) : 0.125
Stream size : 3.10 GiB (89%)
Language : English
Default : Yes
Forced : No
Color range : Limited
Color primaries : BT.709
Transfer characteristics : BT.709
Matrix coefficients : BT.709
Audio #1
ID : 2
Format : AC-3
Format/Info : Audio Coding 3
Codec ID : A_AC3
Duration : 1 h 37 min
Bit rate mode : Constant
Bit rate : 192 kb/s
Channel(s) : 2 channels
Channel positions : Front: L R
Sampling rate : 48.0 kHz
Frame rate : 31.250 FPS (1536 SPF)
Bit depth : 16 bits
Compression mode : Lossy
Stream size : 134 MiB (4%)
Title : MVO, HDRezka Studio
Language : Russian
Service kind : Complete Main
Default : Yes
Forced : No
Audio #2
ID : 3
Format : AC-3
Format/Info : Audio Coding 3
Codec ID : A_AC3
Duration : 1 h 37 min
Bit rate mode : Constant
Bit rate : 384 kb/s
Channel(s) : 6 channels
Channel positions : Front: L C R, Side: L R, LFE
Sampling rate : 48.0 kHz
Frame rate : 31.250 FPS (1536 SPF)
Bit depth : 16 bits
Compression mode : Lossy
Stream size : 269 MiB (8%)
Language : English
Service kind : Complete Main
Default : No
Forced : No
Text
ID : 4
Format : UTF-8
Codec ID : S_TEXT/UTF8
Codec ID/Info : UTF-8 Plain Text
Duration : 1 h 37 min
Bit rate : 90 b/s
Count of elements : 1468
Stream size : 64.1 KiB (0%)
Language : English
Default : No
Forced : No
Menu
00:00:00.000 : en:1
00:01:57.000 : en:2
00:15:45.000 : en:3
00:26:10.000 : en:4
00:35:10.000 : en:5
00:46:46.000 : en:6
00:56:50.000 : en:7
01:06:03.000 : en:8
01:17:03.000 : en:9
01:28:32.000 : en:10
01:34:44.000 : en:11
Скачать

Скачать торрент!

Как скачивать? · Что такое торрент? · Рейтинг и ограничения

Сайт не распространяет и не хранит электронные версии произведений, а лишь предоставляет доступ к создаваемому пользователями каталогу ссылок на торрент-файлы, которые содержат только списки хеш-сумм

загрузка...

_________________
ПУСТЬ ВАС НЕ СМУЩАЕТ ОТСУТСТВИЕ СИДОВ НА МОИХ РАЗДАЧАХ, РАЗДАЧИ МУЛЬТИТРЕКЕРНЫЕ СИДЫ (Раздающие) по DHT ЕСТЬ ВСЕГДА !!!!
[Профиль] [ЛС]
Показать сообщения:    
Ответить на тему

Текущее время: Сегодня 01:15

Часовой пояс: GMT + 4



Вы не можете начинать темы
Вы не можете отвечать на сообщения
Вы не можете редактировать свои сообщения
Вы не можете удалять свои сообщения
Вы не можете голосовать в опросах
Вы не можете прикреплять файлы к сообщениям
Вы не можете скачивать файлы