Тьма в Гаване / Havana Darkness (2019) BDRip 1080p | HDRezka Studio

Ответить на тему
 
Автор Сообщение

Magnat ®

Пол:

Стаж: 4 года 3 месяца

Сообщений: 420

Откуда: xxxtorrents.pro

Пост Пост: #1 от 05-Май-2019 20:53

[Цитировать]

Тьма в Гаване / Havana Darkness- Оригинальное название: Havana Darkness
Год выхода: 2019
Жанр: Триллер
Режиссер: Гильермо Иван
В ролях: Каролина Равасса, Гильермо Иван, Джек Димич, Монте Безелл, Ханна Д. Скотт, Зэк Роуз, Заир Монтес, Лорис Курчи, Питер Перейра, Идальмис Гарсия-Отправляясь в Гавану, столицу Кубы, чтобы выяснить происхождение таинственной рукописи, предположительно написанной известным американским писателем Эрнестом Хемингуэем, трое друзей оказываются в ловушке внутри заброшенного здания, расположенного в центре города. Ребята должны как можно быстрее пройти через лабиринт смертельных ловушек, чтобы найти выход из здания, прежде чем их выследит и убьёт кровавый маньяк.
Страна: США
Студия: Open Frames, Global Group, Golden Ceiba Productions
Продолжительность: 01:24:54
Перевод: Профессиональный многоголосый | HDRezka Studio
Кодек: x.264
Качество: BDRip 1080p
Видео: MPEG-4 AVC, 10.3 Mбит/с, 1920x1080, 23.976 кадр/с
Аудио #1: Русский (АС3, 2ch, 192 Кбит/с, 48.0 KHz) Профессиональный (многоголосый, закадровый) HDRezka Studio
Аудио #2: Английский (DTS, 6ch, 1509 Кбит/с, 48.0 KHz)
Субтитры: Английские
Трейлер

MediaInfo

Источник: Havana.Darkness.2019.1080p.BluRay.x264.DTS-CHD
General
Unique ID : 177338326328026984085401102902356268320 (0x856A1E8A333A13629600DEEA5286D520)
Complete name : Havana.Darkness.2019.BDRip.1080p.mkv
Format : Matroska
Format version : Version 4 / Version 2
File size : 7.14 GiB
Duration : 1 h 24 min
Overall bit rate : 12.0 Mb/s
Encoded date : UTC 2019-04-30 19:01:46
Writing application : mkvmerge v7.1.0 ('Good Love') 64bit built on Jul 27 2014 13:06:55
Writing library : libebml v1.3.0 + libmatroska v1.4.1
Video
ID : 1
Format : AVC
Format/Info : Advanced Video Codec
Format profile : High@L4.1
Format settings, CABAC : Yes
Format settings, RefFrames : 4 frames
Codec ID : V_MPEG4/ISO/AVC
Duration : 1 h 24 min
Bit rate : 10.3 Mb/s
Width : 1 920 pixels
Height : 1 080 pixels
Display aspect ratio : 16:9
Frame rate mode : Constant
Frame rate : 23.976 (24000/1001) FPS
Color space : YUV
Chroma subsampling : 4:2:0
Bit depth : 8 bits
Scan type : Progressive
Bits/(Pixel*Frame) : 0.208
Stream size : 6.13 GiB (86%)
Writing library : x264 core 157 r2867+150 7e91e0e t_mod_Custom_2 [8-bit@all X86_64]
Encoding settings : cabac=1 / ref=4 / deblock=1:-3:-3 / analyse=0x3:0x133 / me=umh / subme=10 / psy=1 / fade_compensate=0.00 / psy_rd=0.95:0.10 / mixed_ref=1 / me_range=48 / chroma_me=1 / trellis=2 / 8x8dct=1 / cqm=0 / deadzone=21,11 / fast_pskip=0 / chroma_qp_offset=-4 / threads=18 / lookahead_threads=3 / sliced_threads=0 / nr=0 / decimate=1 / interlaced=0 / bluray_compat=0 / constrained_intra=0 / fgo=0 / bframes=8 / b_pyramid=2 / b_adapt=2 / b_bias=0 / direct=3 / weightb=1 / open_gop=0 / weightp=2 / keyint=250 / keyint_min=23 / scenecut=40 / intra_refresh=0 / rc_lookahead=60 / rc=crf / mbtree=0 / crf=21.0000 / qcomp=0.70 / qpmin=0:0:0 / qpmax=69:69:69 / qpstep=4 / vbv_maxrate=35000 / vbv_bufsize=35000 / crf_max=0.0 / nal_hrd=none / filler=0 / ip_ratio=1.40 / pb_ratio=1.30 / aq=3:1.00 / aq-sensitivity=10.00 / aq-factor=1.00:1.00:1.00 / aq2=0 / aq3=2:[0.50:0.50]:[0.50:0.50]:[0.50:0.50]:[0.50:0.50] / aq3-sensitivity=10.00 / aq3-factor=[1.00:1.00]:[1.00:1.00]:[1.00:1.00] / aq3-boundary=192:64:24
Language : English
Default : Yes
Forced : No
Audio #1
ID : 2
Format : AC-3
Format/Info : Audio Coding 3
Format settings, Endianness : Big
Codec ID : A_AC3
Duration : 1 h 24 min
Bit rate mode : Constant
Bit rate : 192 kb/s
Channel(s) : 2 channels
Channel positions : Front: L R
Sampling rate : 48.0 kHz
Frame rate : 31.250 FPS (1536 SPF)
Bit depth : 16 bits
Compression mode : Lossy
Stream size : 117 MiB (2%)
Title : MVO | HDRezka Studio
Language : Russian
Service kind : Complete Main
Default : Yes
Forced : No
Audio #2
ID : 3
Format : DTS
Format/Info : Digital Theater Systems
Mode : 16
Format settings, Endianness : Big
Codec ID : A_DTS
Duration : 1 h 24 min
Bit rate mode : Constant
Bit rate : 1 509 kb/s
Channel(s) : 6 channels
Channel positions : Front: L C R, Side: L R, LFE
Sampling rate : 48.0 kHz
Frame rate : 93.750 FPS (512 SPF)
Bit depth : 24 bits
Compression mode : Lossy
Stream size : 916 MiB (13%)
Language : English
Default : No
Forced : No
Text #1
ID : 4
Format : UTF-8
Codec ID : S_TEXT/UTF8
Codec ID/Info : UTF-8 Plain Text
Duration : 1 h 21 min
Bit rate : 31 b/s
Count of elements : 653
Stream size : 18.8 KiB (0%)
Language : English
Default : No
Forced : No
Text #2
ID : 5
Format : UTF-8
Codec ID : S_TEXT/UTF8
Codec ID/Info : UTF-8 Plain Text
Duration : 1 h 22 min
Bit rate : 33 b/s
Count of elements : 709
Stream size : 20.2 KiB (0%)
Title : SDH
Language : English
Default : No
Forced : No
Menu
00:00:00.000 : :绗?01 绔?
00:10:36.219 : :绗?02 绔?
00:21:12.146 : :绗?03 绔?
00:30:15.814 : :绗?04 绔?
00:40:03.818 : :绗?05 绔?
00:49:36.807 : :绗?06 绔?
01:00:01.515 : :绗?07 绔?
01:08:37.322 : :绗?08 绔?
01:19:29.348 : :绗?09 绔?

Скриншоты

Скачать

Скачать торрент!

Как скачивать? · Что такое торрент? · Рейтинг и ограничения

Сайт не распространяет и не хранит электронные версии произведений, а лишь предоставляет доступ к создаваемому пользователями каталогу ссылок на торрент-файлы, которые содержат только списки хеш-сумм

загрузка...

_________________
ПУСТЬ ВАС НЕ СМУЩАЕТ ОТСУТСТВИЕ СИДОВ НА МОИХ РАЗДАЧАХ, РАЗДАЧИ МУЛЬТИТРЕКЕРНЫЕ СИДЫ (Раздающие) по DHT ЕСТЬ ВСЕГДА !!!!
[Профиль] [ЛС]
Показать сообщения:    
Ответить на тему

Текущее время: Сегодня 17:07

Часовой пояс: GMT + 4



Вы не можете начинать темы
Вы не можете отвечать на сообщения
Вы не можете редактировать свои сообщения
Вы не можете удалять свои сообщения
Вы не можете голосовать в опросах
Вы не можете прикреплять файлы к сообщениям
Вы не можете скачивать файлы