Проклятые / Письмо смерти / BOO! (2019) WEB-DL 1080p от ExKinoRay | HDRezka Studio

Ответить на тему
 
Автор Сообщение

Magnat ®

Пол:

Стаж: 4 года 1 месяц

Сообщений: 420

Откуда: xxxtorrents.pro

Пост Пост: #1 от 05-Май-2019 20:51

[Цитировать]

Проклятые / Письмо смерти / BOO!- Оригинальное название: BOO!
Год выпуска: 2019
Жанр: Ужасы, триллер, драма, детектив
Режиссер: Люк Джейден Савицки
В ролях: Аврора Перрино, Джейден Пайнер, Джилл Мари Джонс, Роб Забрески, Чарли Палмер Ротуэлл, Рувим Блюменштейн, Каден Бросовски, Дуайт Генри, Энтони Курковски, Феликс Маккарти-Хэллоуин — время для забавных переодеваний, застолий и безобидных страхов. Но только в том случае, если вы не стали жертвой «Бу!».«Бу!» — это поверье, согласно которому, человек, получивший «письмо ужаса», должен сразу же переправить его другому. В противном случае несчастного начинают преследовать темные силы, способные довести до безумия. Однажды хэллоуинским утром Джеймс обнаружил такое письмо на пороге своего дома. Глупостями вроде историй о призраках ему заниматься было некогда, и он, не долго думая, послание сжег. Чем привел в ужас жену, дочь и сына, которые верили в силу «Бу!» И оказались правы. Потому что этой же ночью каждому члену семьи предстояло пережить свой персональный ад…
Выпущено: США, Midland Entertainment
Продолжительность: 01:30:27
Перевод: Профессиональный (многоголосый, закадровый) | HDRezka Studio
Субтитры: Английские
БЕЗ КАКОЙ-ЛИБО РЕКЛАМЫ!
Формат: MKV
Качество: WEB-DL 1080p
Видео: MPEG-4 AVC, 1920x1080 (16:9), 24.000 fps, 4741 Kbps, 0.101 bit/pixel
Аудио 1: 48 kHz, AC3, 2.0, 256 Kbps | MVO | RUS |
Аудио 2: 48 kHz, AC3, 5.1, 384 Kbps | Оригинал | ENG |

ОтчетМедиаИнфо

General
Unique ID : 251751040060066374406804178925406745448 (0xBD657C95A243833E8F01BBA169117368)
Complete name : F:Boo.2019.MVO.1080p.WEB-DL.ExKinoRay.mkv
Format : Matroska
Format version : Version 2
File size : 3.47 GiB
Duration : 1 h 30 min
Overall bit rate : 5 491 kb/s
Movie name : Boo 2019 from ExKinoRay
Encoded date : UTC 2019-05-01 03:45:23
Writing application : mkvmerge v5.6.0 ('Kenya Kane') built on May 27 2012 16:44:04
Writing library : libebml v1.2.3 + libmatroska v1.3.0
Video
ID : 1
Format : AVC
Format/Info : Advanced Video Codec
Format profile : High@L4
Format settings, CABAC : Yes
Format settings, ReFrames : 4 frames
Codec ID : V_MPEG4/ISO/AVC
Duration : 1 h 30 min
Bit rate : 4 741 kb/s
Width : 1 912 pixels
Height : 1 028 pixels
Display aspect ratio : 1.85:1
Frame rate mode : Constant
Frame rate : 24.000 FPS
Color space : YUV
Chroma subsampling : 4:2:0
Bit depth : 8 bits
Scan type : Progressive
Bits/(Pixel*Frame) : 0.101
Stream size : 3.00 GiB (86%)
Title : Boo.2019.1080p
Language : English
Default : Yes
Forced : No
Color range : Limited
Color primaries : BT.709
Transfer characteristics : BT.709
Matrix coefficients : BT.709
Audio #1
ID : 2
Format : AC-3
Format/Info : Audio Coding 3
Mode extension : CM (complete main)
Format settings, Endianness : Big
Codec ID : A_AC3
Duration : 1 h 30 min
Bit rate mode : Constant
Bit rate : 256 kb/s
Channel(s) : 2 channels
Channel positions : Front: L R
Sampling rate : 48.0 kHz
Frame rate : 31.250 FPS (1536 spf)
Compression mode : Lossy
Stream size : 166 MiB (5%)
Title : MVO (HDrezka studio)
Language : Russian
Default : Yes
Forced : No
Audio #2
ID : 3
Format : AC-3
Format/Info : Audio Coding 3
Mode extension : CM (complete main)
Format settings, Endianness : Big
Codec ID : A_AC3
Duration : 1 h 30 min
Bit rate mode : Constant
Bit rate : 384 kb/s
Channel(s) : 6 channels
Channel positions : Front: L C R, Side: L R, LFE
Sampling rate : 48.0 kHz
Frame rate : 31.250 FPS (1536 spf)
Compression mode : Lossy
Stream size : 248 MiB (7%)
Language : English
Default : No
Forced : No
Text
ID : 4
Format : UTF-8
Codec ID : S_TEXT/UTF8
Codec ID/Info : UTF-8 Plain Text
Language : English
Default : No
Forced : No
Menu
00:00:00.000 : en:1
00:06:29.000 : en:2
00:16:49.000 : en:3
00:27:13.000 : en:4
00:37:54.000 : en:5
00:49:59.000 : en:6
00:58:53.000 : en:7
01:10:38.000 : en:8
01:25:41.000 : en:9
Скачать

Скачать торрент!

Как скачивать? · Что такое торрент? · Рейтинг и ограничения

Сайт не распространяет и не хранит электронные версии произведений, а лишь предоставляет доступ к создаваемому пользователями каталогу ссылок на торрент-файлы, которые содержат только списки хеш-сумм

загрузка...

_________________
ПУСТЬ ВАС НЕ СМУЩАЕТ ОТСУТСТВИЕ СИДОВ НА МОИХ РАЗДАЧАХ, РАЗДАЧИ МУЛЬТИТРЕКЕРНЫЕ СИДЫ (Раздающие) по DHT ЕСТЬ ВСЕГДА !!!!
[Профиль] [ЛС]
Показать сообщения:    
Ответить на тему

Текущее время: Сегодня 05:57

Часовой пояс: GMT + 4



Вы не можете начинать темы
Вы не можете отвечать на сообщения
Вы не можете редактировать свои сообщения
Вы не можете удалять свои сообщения
Вы не можете голосовать в опросах
Вы не можете прикреплять файлы к сообщениям
Вы не можете скачивать файлы