Брат или брак 2 (Алишер Утев) [2019, Казахстан, комедия, DVB] Original Rus

Ответить на тему
 
Автор Сообщение

Magnat ®

Пол:

Стаж: 4 года 1 месяц

Сообщений: 420

Откуда: xxxtorrents.pro

Пост Пост: #1 от 05-Май-2019 20:46

[Цитировать]

Брат или брак 2 Год выпуска: 2019
Страна: Казахстан
Жанр: комедия
Продолжительность: 01:36:58
Перевод: Оригинал (русский)
Субтитры: русские (на казахские диалоги)-Режиссёр: Алишер Утев
В ролях: Даурен Сергазин, Тауекел Муслим, Мурат Бисенбин, Абдунасур Сериков, Олжас Жанабеков, Бауыржан Каптагай, Чингиз Капин, Данияр Джумадилов, Азамат Уланов-О фильме: Гаухар беременна, а Айдар, вроде бы, наконец-то нашел общий язык с братьями жены. Но все меняется, когда главный герой сталкивается с необычной болезнью. Синдром Кувад — мнимая беременность у мужчин — может полностью разрушить планы Айдара и даже его брак.
Качество: DVB [КТК] (эфир 01.05.2019)
Формат: TS
Видео: AVC, 720x576 @ 1047x576 (16:9), 25 fps, ~1877 kbps, 0.181 bit/pixel
Аудио: [RUS] 48 kHz, MP2, 1 ch, 192 kbps

Mediainfo

General
ID : 1 (0x1)
Complete name : H:\Раздачи\Брат или брак 2 (2019) [DVB].ts
Format : MPEG-TS
File size : 1.48 GiB
Duration : 1 h 36 min
Overall bit rate mode : Variable
Overall bit rate : 2 179 kb/s
Video
ID : 67 (0x43)
Menu ID : 1 (0x1)
Format : AVC
Format/Info : Advanced Video Codec
Format profile : High@L3
Format settings : CABAC / 3 Ref Frames
Format settings, CABAC : Yes
Format settings, ReFrames : 3 frames
Format settings, GOP : M=4, N=24
Codec ID : 27
Duration : 1 h 36 min
Bit rate : 1 877 kb/s
Width : 720 pixels
Height : 576 pixels
Display aspect ratio : 16:9
Frame rate : 25.000 FPS
Standard : Component
Color space : YUV
Chroma subsampling : 4:2:0
Bit depth : 8 bits
Scan type : Interlaced
Scan type, store method : Separated fields
Scan order : Top Field First
Bits/(Pixel*Frame) : 0.181
Stream size : 1.27 GiB (86%)
Color range : Limited
Color primaries : BT.601 PAL
Transfer characteristics : BT.470 System B/G
Matrix coefficients : BT.470 System B/G
Audio
ID : 68 (0x44)
Menu ID : 1 (0x1)
Format : MPEG Audio
Format version : Version 1
Format profile : Layer 2
Codec ID : 3
Duration : 1 h 36 min
Bit rate mode : Constant
Bit rate : 192 kb/s
Channel(s) : 1 channel
Sampling rate : 48.0 kHz
Frame rate : 41.667 FPS (1152 SPF)
Compression mode : Lossy
Delay relative to video : -80 ms
Stream size : 133 MiB (9%)
Language : English

Скриншоты

Скачать

Скачать торрент!

Как скачивать? · Что такое торрент? · Рейтинг и ограничения

Сайт не распространяет и не хранит электронные версии произведений, а лишь предоставляет доступ к создаваемому пользователями каталогу ссылок на торрент-файлы, которые содержат только списки хеш-сумм

загрузка...

_________________
ПУСТЬ ВАС НЕ СМУЩАЕТ ОТСУТСТВИЕ СИДОВ НА МОИХ РАЗДАЧАХ, РАЗДАЧИ МУЛЬТИТРЕКЕРНЫЕ СИДЫ (Раздающие) по DHT ЕСТЬ ВСЕГДА !!!!
[Профиль] [ЛС]
Показать сообщения:    
Ответить на тему

Текущее время: Сегодня 05:18

Часовой пояс: GMT + 4



Вы не можете начинать темы
Вы не можете отвечать на сообщения
Вы не можете редактировать свои сообщения
Вы не можете удалять свои сообщения
Вы не можете голосовать в опросах
Вы не можете прикреплять файлы к сообщениям
Вы не можете скачивать файлы