Американский палач / American Hangman (2019) WEB-DL 1080p от ExKinoRay | iTunes

Ответить на тему
 
Автор Сообщение

Magnat ®

Пол:

Стаж: 4 года 4 месяца

Сообщений: 420

Откуда: xxxtorrents.pro

Пост Пост: #1 от 05-Май-2019 20:03

[Цитировать]

Американский палач / American Hangman- Оригинальное название: American Hangman
Год выпуска: 2019
Жанр: Триллер
Режиссер: Уилсон Конибер
В ролях: Дональд Сазерленд, Винсент Картайзер, Оливер Дэннис, Пол Браунштейн, Пол Амато, Мэтт Барам, Дэн Бирн, Джоэнн Боланд, Александр Краузер, Чарли Эббс-Похищение человека, которое транслируют в прямом эфире в социальных сетях, внезапно превращается в разбирательство над судьей, который вынес неверный вердикт в одном из своих прошлых уголовных дел. Однако на этот раз судья становится подсудимым, а роль судьи и присяжных исполняют зрители прямой трансляции и именно им предстоит решать, останется ли он в живых.
Выпущено: Канада, Hangman Justice Productions
Продолжительность: 01:39:07
Перевод: Профессиональный (многоголосый, закадровый) | iTunes
Субтитры: Русские, английские, украинские
БЕЗ КАКОЙ-ЛИБО РЕКЛАМЫ!
Формат: MKV
Качество: WEB-DL 1080p
Видео: MPEG-4 AVC, 1920x796 (2.40:1), 23.976 fps, 4445 Kbps, 0.121 bit/pixel
Аудио 1: 48 kHz, AC3, 5.1, 384 Kbps | MVO | RUS |
Аудио 2: 48 kHz, AC3, 5.1, 384 Kbps | Оригинал | ENG |

ОтчетМедиаИнфо

General
Unique ID : 175308756044844740886864452928257867635 (0x83E33CFFC98BF7489EF54EBC38733F73)
Complete name : D:American.Hangman.2018.iTunes.1080p.WEB-DL.ExKinoRay.mkv
Format : Matroska
Format version : Version 2
File size : 3.68 GiB
Duration : 1 h 39 min
Overall bit rate : 5 315 kb/s
Movie name : American Hangman 2018 from ExKinoRay
Encoded date : UTC 2019-03-24 22:43:02
Writing application : mkvmerge v5.6.0 ('Kenya Kane') built on May 27 2012 16:44:04
Writing library : libebml v1.2.3 + libmatroska v1.3.0
Video
ID : 1
Format : AVC
Format/Info : Advanced Video Codec
Format profile : High@L4
Format settings, CABAC : Yes
Format settings, ReFrames : 5 frames
Codec ID : V_MPEG4/ISO/AVC
Duration : 1 h 39 min
Bit rate : 4 442 kb/s
Width : 1 920 pixels
Height : 796 pixels
Display aspect ratio : 2.40:1
Frame rate mode : Constant
Frame rate : 23.976 (24000/1001) FPS
Color space : YUV
Chroma subsampling : 4:2:0
Bit depth : 8 bits
Scan type : Progressive
Bits/(Pixel*Frame) : 0.121
Stream size : 3.08 GiB (84%)
Title : American.Hangman.2018.1080p
Language : English
Default : Yes
Forced : No
Color range : Limited
Color primaries : BT.709
Transfer characteristics : BT.709
Matrix coefficients : BT.709
Audio #1
ID : 2
Format : AC-3
Format/Info : Audio Coding 3
Mode extension : CM (complete main)
Format settings, Endianness : Big
Codec ID : A_AC3
Duration : 1 h 39 min
Bit rate mode : Constant
Bit rate : 384 kb/s
Channel(s) : 6 channels
Channel positions : Front: L C R, Side: L R, LFE
Sampling rate : 48.0 kHz
Frame rate : 31.250 FPS (1536 spf)
Compression mode : Lossy
Delay relative to video : -42 ms
Stream size : 272 MiB (7%)
Title : iTunes
Language : Russian
Default : Yes
Forced : No
Audio #2
ID : 3
Format : AC-3
Format/Info : Audio Coding 3
Mode extension : CM (complete main)
Format settings, Endianness : Big
Codec ID : A_AC3
Duration : 1 h 39 min
Bit rate mode : Constant
Bit rate : 384 kb/s
Channel(s) : 6 channels
Channel positions : Front: L C R, Side: L R, LFE
Sampling rate : 48.0 kHz
Frame rate : 31.250 FPS (1536 spf)
Compression mode : Lossy
Delay relative to video : -42 ms
Stream size : 272 MiB (7%)
Language : English
Default : No
Forced : No
Text #1
ID : 4
Format : UTF-8
Codec ID : S_TEXT/UTF8
Codec ID/Info : UTF-8 Plain Text
Language : Russian
Default : No
Forced : No
Text #2
ID : 5
Format : UTF-8
Codec ID : S_TEXT/UTF8
Codec ID/Info : UTF-8 Plain Text
Language : Ukrainian
Default : No
Forced : No
Text #3
ID : 6
Format : UTF-8
Codec ID : S_TEXT/UTF8
Codec ID/Info : UTF-8 Plain Text
Language : English
Default : No
Forced : No
Menu
00:00:00.000 : en:1
00:06:04.000 : en:2
00:12:40.000 : en:3
00:19:23.000 : en:4
00:25:03.000 : en:5
00:31:20.000 : en:6
00:38:20.000 : en:7
00:44:35.000 : en:8
00:50:44.000 : en:9
00:57:12.000 : en:10
01:03:23.000 : en:11
01:09:26.000 : en:12
01:16:12.000 : en:13
01:22:15.000 : en:14
01:28:05.000 : en:15
01:35:00.000 : en:16
Скачать

Скачать торрент!

Как скачивать? · Что такое торрент? · Рейтинг и ограничения

Сайт не распространяет и не хранит электронные версии произведений, а лишь предоставляет доступ к создаваемому пользователями каталогу ссылок на торрент-файлы, которые содержат только списки хеш-сумм

загрузка...

_________________
ПУСТЬ ВАС НЕ СМУЩАЕТ ОТСУТСТВИЕ СИДОВ НА МОИХ РАЗДАЧАХ, РАЗДАЧИ МУЛЬТИТРЕКЕРНЫЕ СИДЫ (Раздающие) по DHT ЕСТЬ ВСЕГДА !!!!
[Профиль] [ЛС]
Показать сообщения:    
Ответить на тему

Текущее время: Сегодня 14:07

Часовой пояс: GMT + 4



Вы не можете начинать темы
Вы не можете отвечать на сообщения
Вы не можете редактировать свои сообщения
Вы не можете удалять свои сообщения
Вы не можете голосовать в опросах
Вы не можете прикреплять файлы к сообщениям
Вы не можете скачивать файлы